  0
SECTION
  2
HEADER
  9
$ACADVER
  1
AC1014
  9
$ACADMAINTVER
 70
     9
  9
$DWGCODEPAGE
  3
ANSI_1252
  9
$INSBASE
 10
0.0
 20
0.0
 30
0.0
  9
$EXTMIN
 10
579.9442172684731
 20
1057.23017024517
 30
0.0
  9
$EXTMAX
 10
1754.112177487175
 20
1909.945568359536
 30
0.0
  9
$LIMMIN
 10
0.0
 20
0.0
  9
$LIMMAX
 10
420.0
 20
297.0
  9
$ORTHOMODE
 70
     1
  9
$REGENMODE
 70
     1
  9
$FILLMODE
 70
     1
  9
$QTEXTMODE
 70
     0
  9
$MIRRTEXT
 70
     1
  9
$DRAGMODE
 70
     2
  9
$LTSCALE
 40
1.0
  9
$OSMODE
 70
    37
  9
$ATTMODE
 70
     1
  9
$TEXTSIZE
 40
10.0
  9
$TRACEWID
 40
1.0
  9
$TEXTSTYLE
  7
STANDARD
  9
$CLAYER
  8
DIM
  9
$CELTYPE
  6
BYLAYER
  9
$CECOLOR
 62
   256
  9
$CELTSCALE
 40
1.0
  9
$DELOBJ
 70
     1
  9
$DISPSILH
 70
     0
  9
$DIMSCALE
 40
1.0
  9
$DIMASZ
 40
2.5
  9
$DIMEXO
 40
0.625
  9
$DIMDLI
 40
3.75
  9
$DIMRND
 40
0.0
  9
$DIMDLE
 40
0.0
  9
$DIMEXE
 40
1.25
  9
$DIMTP
 40
0.0
  9
$DIMTM
 40
0.0
  9
$DIMTXT
 40
2.5
  9
$DIMCEN
 40
2.5
  9
$DIMTSZ
 40
0.0
  9
$DIMTOL
 70
     0
  9
$DIMLIM
 70
     0
  9
$DIMTIH
 70
     0
  9
$DIMTOH
 70
     0
  9
$DIMSE1
 70
     0
  9
$DIMSE2
 70
     0
  9
$DIMTAD
 70
     1
  9
$DIMZIN
 70
     8
  9
$DIMBLK
  1

  9
$DIMASO
 70
     1
  9
$DIMSHO
 70
     1
  9
$DIMPOST
  1

  9
$DIMAPOST
  1

  9
$DIMALT
 70
     0
  9
$DIMALTD
 70
     3
  9
$DIMALTF
 40
0.03937007874016
  9
$DIMLFAC
 40
1.0
  9
$DIMTOFL
 70
     1
  9
$DIMTVP
 40
0.0
  9
$DIMTIX
 70
     0
  9
$DIMSOXD
 70
     0
  9
$DIMSAH
 70
     0
  9
$DIMBLK1
  1

  9
$DIMBLK2
  1

  9
$DIMSTYLE
  2
ISO-25
  9
$DIMCLRD
 70
     0
  9
$DIMCLRE
 70
     0
  9
$DIMCLRT
 70
     0
  9
$DIMTFAC
 40
1.0
  9
$DIMGAP
 40
0.625
  9
$DIMJUST
 70
     0
  9
$DIMSD1
 70
     0
  9
$DIMSD2
 70
     0
  9
$DIMTOLJ
 70
     0
  9
$DIMTZIN
 70
     8
  9
$DIMALTZ
 70
     0
  9
$DIMALTTZ
 70
     0
  9
$DIMFIT
 70
     3
  9
$DIMUPT
 70
     0
  9
$DIMUNIT
 70
     2
  9
$DIMDEC
 70
     2
  9
$DIMTDEC
 70
     2
  9
$DIMALTU
 70
     2
  9
$DIMALTTD
 70
     3
  9
$DIMTXSTY
  7
STANDARD
  9
$DIMAUNIT
 70
     0
  9
$LUNITS
 70
     2
  9
$LUPREC
 70
     4
  9
$SKETCHINC
 40
1.0
  9
$FILLETRAD
 40
10.0
  9
$AUNITS
 70
     0
  9
$AUPREC
 70
     0
  9
$MENU
  1
.
  9
$ELEVATION
 40
0.0
  9
$PELEVATION
 40
0.0
  9
$THICKNESS
 40
0.0
  9
$LIMCHECK
 70
     0
  9
$BLIPMODE
 70
     0
  9
$CHAMFERA
 40
10.0
  9
$CHAMFERB
 40
10.0
  9
$CHAMFERC
 40
20.0
  9
$CHAMFERD
 40
0.0
  9
$SKPOLY
 70
     0
  9
$TDCREATE
 40
2454001.452481192
  9
$TDUPDATE
 40
2454003.693228796
  9
$TDINDWG
 40
0.0574690856
  9
$TDUSRTIMER
 40
0.0574690856
  9
$USRTIMER
 70
     1
  9
$ANGBASE
 50
0.0
  9
$ANGDIR
 70
     0
  9
$PDMODE
 70
     0
  9
$PDSIZE
 40
0.0
  9
$PLINEWID
 40
0.0
  9
$COORDS
 70
     1
  9
$SPLFRAME
 70
     0
  9
$SPLINETYPE
 70
     6
  9
$SPLINESEGS
 70
     8
  9
$ATTDIA
 70
     0
  9
$ATTREQ
 70
     1
  9
$HANDLING
 70
-16383
  9
$HANDSEED
  5
7DF
  9
$SURFTAB1
 70
     6
  9
$SURFTAB2
 70
     6
  9
$SURFTYPE
 70
     6
  9
$SURFU
 70
     6
  9
$SURFV
 70
     6
  9
$UCSNAME
  2

  9
$UCSORG
 10
0.0
 20
0.0
 30
0.0
  9
$UCSXDIR
 10
1.0
 20
0.0
 30
0.0
  9
$UCSYDIR
 10
0.0
 20
1.0
 30
0.0
  9
$PUCSNAME
  2

  9
$PUCSORG
 10
0.0
 20
0.0
 30
0.0
  9
$PUCSXDIR
 10
1.0
 20
0.0
 30
0.0
  9
$PUCSYDIR
 10
0.0
 20
1.0
 30
0.0
  9
$USERI1
 70
     0
  9
$USERI2
 70
     0
  9
$USERI3
 70
     0
  9
$USERI4
 70
     0
  9
$USERI5
 70
     0
  9
$USERR1
 40
0.0
  9
$USERR2
 40
0.0
  9
$USERR3
 40
0.0
  9
$USERR4
 40
0.0
  9
$USERR5
 40
0.0
  9
$WORLDVIEW
 70
     1
  9
$SHADEDGE
 70
     3
  9
$SHADEDIF
 70
    70
  9
$TILEMODE
 70
     1
  9
$MAXACTVP
 70
    64
  9
$PINSBASE
 10
0.0
 20
0.0
 30
0.0
  9
$PLIMCHECK
 70
     0
  9
$PEXTMIN
 10
0.0
 20
0.0
 30
0.0
  9
$PEXTMAX
 10
0.0
 20
0.0
 30
0.0
  9
$PLIMMIN
 10
0.0
 20
0.0
  9
$PLIMMAX
 10
12.0
 20
9.0
  9
$UNITMODE
 70
     0
  9
$VISRETAIN
 70
     1
  9
$PLINEGEN
 70
     0
  9
$PSLTSCALE
 70
     1
  9
$TREEDEPTH
 70
  3020
  9
$PICKSTYLE
 70
     1
  9
$CMLSTYLE
  2
STANDARD
  9
$CMLJUST
 70
     0
  9
$CMLSCALE
 40
20.0
  9
$PROXYGRAPHICS
 70
     1
  9
$MEASUREMENT
 70
     1
  0
ENDSEC
  0
SECTION
  2
CLASSES
  0
CLASS
  1
ACDBDICTIONARYWDFLT
  2
AcDbDictionaryWithDefault
  3
AutoCAD 2000
 90
        0
280
     0
281
     0
  0
CLASS
  1
ACDBPLACEHOLDER
  2
AcDbPlaceHolder
  3
AutoCAD 2000
 90
        0
280
     0
281
     0
  0
CLASS
  1
LAYOUT
  2
AcDbLayout
  3
AutoCAD 2000
 90
        0
280
     0
281
     0
  0
CLASS
  1
IMAGE
  2
AcDbRasterImage
  3
ISM
 90
      127
280
     0
281
     1
  0
CLASS
  1
IMAGEDEF_REACTOR
  2
AcDbRasterImageDefReactor
  3
ISM
 90
        1
280
     0
281
     0
  0
CLASS
  1
IMAGEDEF
  2
AcDbRasterImageDef
  3
ISM
 90
        0
280
     0
281
     0
  0
CLASS
  1
RASTERVARIABLES
  2
AcDbRasterVariables
  3
ISM
 90
        0
280
     0
281
     0
  0
CLASS
  1
LONG_TRANSACTION
  2
AcDbLongTransaction
  3
AutoCAD 2000
 90
        0
280
     0
281
     0
  0
CLASS
  1
LWPOLYLINE
  2
AcDbPolyline
  3
AutoCAD 2000
 90
        0
280
     0
281
     1
  0
CLASS
  1
HATCH
  2
AcDbHatch
  3
AutoCAD 2000
 90
        0
280
     0
281
     1
  0
CLASS
  1
XRECORD
  2
AcDbXrecord
  3
AutoCAD 2000
 90
        0
280
     0
281
     0
  0
ENDSEC
  0
SECTION
  2
TABLES
  0
TABLE
  2
VPORT
  5
8
330
0
100
AcDbSymbolTable
 70
     2
  0
VPORT
  5
7B7
330
8
100
AcDbSymbolTableRecord
100
AcDbViewportTableRecord
  2
*ACTIVE
 70
     0
 10
0.0
 20
0.0
 11
1.0
 21
1.0
 12
1167.030368667663
 22
1483.607510570235
 13
0.0
 23
0.0
 14
10.0
 24
10.0
 15
10.0
 25
10.0
 16
0.0
 26
0.0
 36
1.0
 17
0.0
 27
0.0
 37
0.0
 40
862.4746223480656
 41
1.775280898876404
 42
50.0
 43
0.0
 44
0.0
 50
0.0
 51
0.0
 71
     0
 72
   100
 73
     1
 74
     3
 75
     0
 76
     0
 77
     0
 78
     0
  0
ENDTAB
  0
TABLE
  2
LTYPE
  5
5
330
0
100
AcDbSymbolTable
 70
     3
  0
LTYPE
  5
14
330
5
100
AcDbSymbolTableRecord
100
AcDbLinetypeTableRecord
  2
BYBLOCK
 70
     0
  3

 72
    65
 73
     0
 40
0.0
  0
LTYPE
  5
15
330
5
100
AcDbSymbolTableRecord
100
AcDbLinetypeTableRecord
  2
BYLAYER
 70
     0
  3

 72
    65
 73
     0
 40
0.0
  0
LTYPE
  5
16
330
5
100
AcDbSymbolTableRecord
100
AcDbLinetypeTableRecord
  2
CONTINUOUS
 70
     0
  3
Solid line
 72
    65
 73
     0
 40
0.0
  0
LTYPE
  5
1CC
330
5
100
AcDbSymbolTableRecord
100
AcDbLinetypeTableRecord
  2
DOT
 70
     0
  3
Dot . . . . . . . . . . . . . . . . . . . . . .
 72
    65
 73
     2
 40
6.349999999999999
 49
0.0
 74
     0
 49
-6.349999999999999
 74
     0
  0
LTYPE
  5
1CD
330
5
100
AcDbSymbolTableRecord
100
AcDbLinetypeTableRecord
  2
ACAD_ISO04W100
 70
     0
  3
ISO long-dash dot ____ . ____ . ____ . ____ . _
 72
    65
 73
     4
 40
30.0
 49
24.0
 74
     0
 49
-3.0
 74
     0
 49
0.0
 74
     0
 49
-3.0
 74
     0
  0
ENDTAB
  0
TABLE
  2
LAYER
  5
2
330
0
100
AcDbSymbolTable
 70
    18
  0
LAYER
  5
10
330
2
100
AcDbSymbolTableRecord
100
AcDbLayerTableRecord
  2
0
 70
     0
 62
     7
  6
CONTINUOUS
  0
LAYER
  5
5D
330
2
100
AcDbSymbolTableRecord
100
AcDbLayerTableRecord
  2
GRID
 70
     0
 62
     7
  6
CONTINUOUS
  0
LAYER
  5
5E
330
2
100
AcDbSymbolTableRecord
100
AcDbLayerTableRecord
  2
EDGES
 70
     0
 62
     7
  6
CONTINUOUS
  0
LAYER
  5
5F
330
2
100
AcDbSymbolTableRecord
100
AcDbLayerTableRecord
  2
ST1
 70
     0
 62
     7
  6
CONTINUOUS
  0
LAYER
  5
60
330
2
100
AcDbSymbolTableRecord
100
AcDbLayerTableRecord
  2
ST2
 70
     0
 62
     7
  6
CONTINUOUS
  0
LAYER
  5
61
330
2
100
AcDbSymbolTableRecord
100
AcDbLayerTableRecord
  2
ST3
 70
     0
 62
     7
  6
CONTINUOUS
  0
LAYER
  5
62
330
2
100
AcDbSymbolTableRecord
100
AcDbLayerTableRecord
  2
ST4
 70
     0
 62
     7
  6
CONTINUOUS
  0
LAYER
  5
63
330
2
100
AcDbSymbolTableRecord
100
AcDbLayerTableRecord
  2
ST5
 70
     0
 62
     7
  6
CONTINUOUS
  0
LAYER
  5
64
330
2
100
AcDbSymbolTableRecord
100
AcDbLayerTableRecord
  2
ST6
 70
     0
 62
     7
  6
CONTINUOUS
  0
LAYER
  5
65
330
2
100
AcDbSymbolTableRecord
100
AcDbLayerTableRecord
  2
ST7
 70
     0
 62
     7
  6
CONTINUOUS
  0
LAYER
  5
66
330
2
100
AcDbSymbolTableRecord
100
AcDbLayerTableRecord
  2
ST8
 70
     0
 62
     7
  6
CONTINUOUS
  0
LAYER
  5
67
330
2
100
AcDbSymbolTableRecord
100
AcDbLayerTableRecord
  2
ST9
 70
     0
 62
     7
  6
CONTINUOUS
  0
LAYER
  5
68
330
2
100
AcDbSymbolTableRecord
100
AcDbLayerTableRecord
  2
ST10
 70
     0
 62
     7
  6
CONTINUOUS
  0
LAYER
  5
1CE
330
2
100
AcDbSymbolTableRecord
100
AcDbLayerTableRecord
  2
DEFPOINTS
 70
     0
 62
     7
  6
CONTINUOUS
  0
LAYER
  5
1CF
330
2
100
AcDbSymbolTableRecord
100
AcDbLayerTableRecord
  2
ESPEJO
 70
     0
 62
     7
  6
CONTINUOUS
  0
LAYER
  5
1D0
330
2
100
AcDbSymbolTableRecord
100
AcDbLayerTableRecord
  2
EJES
 70
     0
 62
     5
  6
ACAD_ISO04W100
  0
LAYER
  5
1D1
330
2
100
AcDbSymbolTableRecord
100
AcDbLayerTableRecord
  2
SERVOS
 70
     0
 62
     6
  6
CONTINUOUS
  0
LAYER
  5
5FB
330
2
100
AcDbSymbolTableRecord
100
AcDbLayerTableRecord
  2
DIM
 70
     0
 62
     1
  6
CONTINUOUS
  0
ENDTAB
  0
TABLE
  2
STYLE
  5
3
330
0
100
AcDbSymbolTable
 70
     1
  0
STYLE
  5
11
330
3
100
AcDbSymbolTableRecord
100
AcDbTextStyleTableRecord
  2
STANDARD
 70
     0
 40
0.0
 41
1.0
 50
0.0
 71
     0
 42
10.0
  3
cityb___.ttf
  4

1001
ACAD
1000
CityBlueprint
1071
      514
  0
ENDTAB
  0
TABLE
  2
VIEW
  5
6
330
0
100
AcDbSymbolTable
 70
     0
  0
ENDTAB
  0
TABLE
  2
UCS
  5
7
330
0
100
AcDbSymbolTable
 70
     0
  0
ENDTAB
  0
TABLE
  2
APPID
  5
9
330
0
100
AcDbSymbolTable
 70
     3
  0
APPID
  5
12
330
9
100
AcDbSymbolTableRecord
100
AcDbRegAppTableRecord
  2
ACAD
 70
     0
  0
APPID
  5
69
330
9
100
AcDbSymbolTableRecord
100
AcDbRegAppTableRecord
  2
ADE
 70
     0
  0
APPID
  5
69E
330
9
100
AcDbSymbolTableRecord
100
AcDbRegAppTableRecord
  2
DCO15
 70
     0
  0
ENDTAB
  0
TABLE
  2
DIMSTYLE
  5
A
330
0
100
AcDbSymbolTable
 70
     2
  0
DIMSTYLE
105
27
102
{ACAD_REACTORS
330
5FC
330
60A
330
617
330
632
330
63F
330
64C
330
659
330
666
330
673
330
680
330
68D
102
}
330
A
100
AcDbSymbolTableRecord
100
AcDbDimStyleTableRecord
  2
ISO-25
 70
     0
  3

  4

  5

  6

  7

 40
1.0
 41
2.5
 42
0.625
 43
3.75
 44
1.25
 45
0.0
 46
0.0
 47
0.0
 48
0.0
140
2.5
141
2.5
142
0.0
143
0.03937007874016
144
1.0
145
0.0
146
1.0
147
0.625
 71
     0
 72
     0
 73
     0
 74
     0
 75
     0
 76
     0
 77
     1
 78
     8
170
     0
171
     3
172
     1
173
     0
174
     0
175
     0
176
     0
177
     0
178
     0
270
     2
271
     2
272
     2
273
     2
274
     3
340
11
275
     0
280
     0
281
     0
282
     0
283
     0
284
     8
285
     0
286
     0
287
     3
288
     0
  0
DIMSTYLE
105
6B9
330
A
100
AcDbSymbolTableRecord
100
AcDbDimStyleTableRecord
  2
STANDARD
 70
     0
  3

  4

  5

  6

  7

 40
1.0
 41
0.18
 42
0.0625
 43
0.38
 44
0.18
 45
0.0
 46
0.0
 47
0.0
 48
0.0
140
0.18
141
0.09
142
0.0
143
25.4
144
1.0
145
0.0
146
1.0
147
0.09
 71
     0
 72
     0
 73
     1
 74
     1
 75
     0
 76
     0
 77
     0
 78
     0
170
     0
171
     2
172
     0
173
     0
174
     0
175
     0
176
     0
177
     0
178
     0
270
     2
271
     4
272
     4
273
     2
274
     2
340
11
275
     0
280
     0
281
     0
282
     0
283
     1
284
     0
285
     0
286
     0
287
     3
288
     0
  0
ENDTAB
  0
TABLE
  2
BLOCK_RECORD
  5
1
330
0
100
AcDbSymbolTable
 70
    13
  0
BLOCK_RECORD
  5
1F
102
{ACAD_XDICTIONARY
360
7D9
102
}
330
1
100
AcDbSymbolTableRecord
100
AcDbBlockTableRecord
  2
*MODEL_SPACE
  0
BLOCK_RECORD
  5
50
102
{ACAD_XDICTIONARY
360
7DB
102
}
330
1
100
AcDbSymbolTableRecord
100
AcDbBlockTableRecord
  2
*PAPER_SPACE
  0
BLOCK_RECORD
  5
1C4
330
1
100
AcDbSymbolTableRecord
100
AcDbBlockTableRecord
  2
A$C62F83AD0
  0
BLOCK_RECORD
  5
5FD
330
1
100
AcDbSymbolTableRecord
100
AcDbBlockTableRecord
  2
*D2
  0
BLOCK_RECORD
  5
60B
330
1
100
AcDbSymbolTableRecord
100
AcDbBlockTableRecord
  2
*D3
  0
BLOCK_RECORD
  5
618
330
1
100
AcDbSymbolTableRecord
100
AcDbBlockTableRecord
  2
*D4
  0
BLOCK_RECORD
  5
633
330
1
100
AcDbSymbolTableRecord
100
AcDbBlockTableRecord
  2
*D5
  0
BLOCK_RECORD
  5
640
330
1
100
AcDbSymbolTableRecord
100
AcDbBlockTableRecord
  2
*D6
  0
BLOCK_RECORD
  5
64D
330
1
100
AcDbSymbolTableRecord
100
AcDbBlockTableRecord
  2
*D7
  0
BLOCK_RECORD
  5
65A
330
1
100
AcDbSymbolTableRecord
100
AcDbBlockTableRecord
  2
*D8
  0
BLOCK_RECORD
  5
667
330
1
100
AcDbSymbolTableRecord
100
AcDbBlockTableRecord
  2
*D9
  0
BLOCK_RECORD
  5
674
330
1
100
AcDbSymbolTableRecord
100
AcDbBlockTableRecord
  2
*D10
  0
BLOCK_RECORD
  5
681
330
1
100
AcDbSymbolTableRecord
100
AcDbBlockTableRecord
  2
*D11
  0
BLOCK_RECORD
  5
68E
330
1
100
AcDbSymbolTableRecord
100
AcDbBlockTableRecord
  2
*D12
  0
ENDTAB
  0
ENDSEC
  0
SECTION
  2
BLOCKS
  0
BLOCK
  5
20
330
1F
100
AcDbEntity
  8
0
100
AcDbBlockBegin
  2
*MODEL_SPACE
 70
     0
 10
0.0
 20
0.0
 30
0.0
  3
*MODEL_SPACE
  1

  0
ENDBLK
  5
21
330
1F
100
AcDbEntity
  8
0
100
AcDbBlockEnd
  0
BLOCK
  5
52
330
50
100
AcDbEntity
 67
     1
  8
0
100
AcDbBlockBegin
  2
*PAPER_SPACE
 70
     0
 10
0.0
 20
0.0
 30
0.0
  3
*PAPER_SPACE
  1

  0
ENDBLK
  5
53
330
50
100
AcDbEntity
 67
     1
  8
0
100
AcDbBlockEnd
  0
BLOCK
  5
1CA
330
1C4
100
AcDbEntity
  8
0
100
AcDbBlockBegin
  2
A$C62F83AD0
 70
     0
 10
0.0
 20
0.0
 30
0.0
  3
A$C62F83AD0
  1

  0
LWPOLYLINE
  5
1C5
330
1C4
100
AcDbEntity
  8
0
  6
CONTINUOUS
100
AcDbPolyline
 90
        8
 70
     0
 43
0.0
 10
26.00000033096899
 20
0.0000015038847323
 10
5.000000330968987
 20
0.0000015038847323
 42
-0.4142135623730951
 10
0.0000003309689873
 20
5.000001503884732
 10
0.0000003309689873
 20
26.00000150388473
 42
-0.4142135623730951
 10
5.000000330968987
 20
31.00000150388473
 10
26.0000003309691
 20
31.00000150388473
 42
-0.4142135623730951
 10
31.0000003309691
 20
26.00000150388473
 10
31.00000033096899
 20
5.000001503884732
  0
ARC
  5
1C6
330
1C4
100
AcDbEntity
  8
ESPEJO
100
AcDbCircle
 10
26.00000033096899
 20
5.000001503884732
 30
0.0
 40
5.0
100
AcDbArc
 50
270.0
 51
0.0
  0
LINE
  5
1C7
330
1C4
100
AcDbEntity
  8
EJES
100
AcDbLine
 10
1.464466425036334
 20
29.53553540981738
 30
0.0
 11
29.53553423690186
 21
1.464467597951966
 31
0.0
  0
LINE
  5
1C8
330
1C4
100
AcDbEntity
  8
EJES
100
AcDbLine
 10
29.53553423690186
 20
29.53553540981749
 30
0.0
 11
1.464466425036334
 21
1.464467597951966
 31
0.0
  0
TEXT
  5
1C9
330
1C4
100
AcDbEntity
  8
DEFPOINTS
100
AcDbText
 10
1.365694388349311
 20
4.579508302718522
 30
0.0
 40
4.873499999999999
  1
bateria
100
AcDbText
  0
ENDBLK
  5
1CB
330
1C4
100
AcDbEntity
  8
0
100
AcDbBlockEnd
  0
BLOCK
  5
607
330
5FD
100
AcDbEntity
  8
0
100
AcDbBlockBegin
  2
*D2
 70
     1
 10
0.0
 20
0.0
 30
0.0
  3
*D2
  1

  0
LINE
  5
725
330
5FD
100
AcDbEntity
  8
DIM
 62
     0
100
AcDbLine
 10
599.9442172684732
 20
1809.532916507689
 30
0.0
 11
599.9442172684732
 21
1767.162883673699
 31
0.0
  0
LINE
  5
726
330
5FD
100
AcDbEntity
  8
DIM
 62
     0
100
AcDbLine
 10
664.9442172684732
 20
1809.532916507689
 30
0.0
 11
664.9442172684732
 21
1767.162883673699
 31
0.0
  0
LINE
  5
727
330
5FD
100
AcDbEntity
  8
DIM
 62
     0
100
AcDbLine
 10
602.4442172684732
 20
1768.412883673699
 30
0.0
 11
662.4442172684732
 21
1768.412883673699
 31
0.0
  0
SOLID
  5
728
330
5FD
100
AcDbEntity
  8
DIM
 62
     0
100
AcDbTrace
 10
602.4442172684732
 20
1768.829550340366
 30
0.0
 11
602.4442172684732
 21
1767.996217007032
 31
0.0
 12
599.9442172684732
 22
1768.412883673699
 32
0.0
 13
599.9442172684732
 23
1768.412883673699
 33
0.0
  0
SOLID
  5
729
330
5FD
100
AcDbEntity
  8
DIM
 62
     0
100
AcDbTrace
 10
662.4442172684732
 20
1768.829550340366
 30
0.0
 11
662.4442172684732
 21
1767.996217007032
 31
0.0
 12
664.9442172684732
 22
1768.412883673699
 32
0.0
 13
664.9442172684732
 23
1768.412883673699
 33
0.0
  0
MTEXT
  5
72A
330
5FD
100
AcDbEntity
  8
DIM
 62
     0
100
AcDbMText
 10
632.4442172684732
 20
1770.287883673699
 30
0.0
 40
2.5
 41
0.0
 71
     5
 72
     1
  1
65
1001
ACAD
1000
MTEXTBEGIN
1070
    73
1070
     1
1070
    44
1040
1.0
1070
    74
1070
     0
1000
MTEXTEND
  0
POINT
  5
72B
330
5FD
100
AcDbEntity
  8
DEFPOINTS
 62
     0
100
AcDbPoint
 10
599.9442172684732
 20
1810.157916507689
 30
0.0
  0
POINT
  5
72C
330
5FD
100
AcDbEntity
  8
DEFPOINTS
 62
     0
100
AcDbPoint
 10
664.9442172684732
 20
1810.157916507689
 30
0.0
  0
POINT
  5
72D
330
5FD
100
AcDbEntity
  8
DEFPOINTS
 62
     0
100
AcDbPoint
 10
664.9442172684732
 20
1768.412883673699
 30
0.0
  0
ENDBLK
  5
608
330
5FD
100
AcDbEntity
  8
0
100
AcDbBlockEnd
  0
BLOCK
  5
615
330
60B
100
AcDbEntity
  8
0
100
AcDbBlockBegin
  2
*D3
 70
     1
 10
0.0
 20
0.0
 30
0.0
  3
*D3
  1

  0
LINE
  5
72E
330
60B
100
AcDbEntity
  8
DIM
 62
     0
100
AcDbLine
 10
664.9442172684732
 20
1809.532916507689
 30
0.0
 11
664.9442172684732
 21
1767.162883673699
 31
0.0
  0
LINE
  5
72F
330
60B
100
AcDbEntity
  8
DIM
 62
     0
100
AcDbLine
 10
729.9442172684733
 20
1809.532916507689
 30
0.0
 11
729.9442172684733
 21
1767.162883673699
 31
0.0
  0
LINE
  5
730
330
60B
100
AcDbEntity
  8
DIM
 62
     0
100
AcDbLine
 10
667.4442172684733
 20
1768.412883673699
 30
0.0
 11
727.4442172684732
 21
1768.412883673699
 31
0.0
  0
SOLID
  5
731
330
60B
100
AcDbEntity
  8
DIM
 62
     0
100
AcDbTrace
 10
667.4442172684733
 20
1768.829550340366
 30
0.0
 11
667.4442172684733
 21
1767.996217007032
 31
0.0
 12
664.9442172684732
 22
1768.412883673699
 32
0.0
 13
664.9442172684732
 23
1768.412883673699
 33
0.0
  0
SOLID
  5
732
330
60B
100
AcDbEntity
  8
DIM
 62
     0
100
AcDbTrace
 10
727.4442172684732
 20
1768.829550340366
 30
0.0
 11
727.4442172684732
 21
1767.996217007032
 31
0.0
 12
729.9442172684733
 22
1768.412883673699
 32
0.0
 13
729.9442172684733
 23
1768.412883673699
 33
0.0
  0
MTEXT
  5
733
330
60B
100
AcDbEntity
  8
DIM
 62
     0
100
AcDbMText
 10
697.4442172684732
 20
1770.287883673699
 30
0.0
 40
2.5
 41
0.0
 71
     5
 72
     1
  1
65
1001
ACAD
1000
MTEXTBEGIN
1070
    73
1070
     1
1070
    44
1040
1.0
1070
    74
1070
     0
1000
MTEXTEND
  0
POINT
  5
734
330
60B
100
AcDbEntity
  8
DEFPOINTS
 62
     0
100
AcDbPoint
 10
664.9442172684732
 20
1810.157916507689
 30
0.0
  0
POINT
  5
735
330
60B
100
AcDbEntity
  8
DEFPOINTS
 62
     0
100
AcDbPoint
 10
729.9442172684733
 20
1810.157916507689
 30
0.0
  0
POINT
  5
736
330
60B
100
AcDbEntity
  8
DEFPOINTS
 62
     0
100
AcDbPoint
 10
729.9442172684733
 20
1768.412883673699
 30
0.0
  0
ENDBLK
  5
616
330
60B
100
AcDbEntity
  8
0
100
AcDbBlockEnd
  0
BLOCK
  5
622
330
618
100
AcDbEntity
  8
0
100
AcDbBlockBegin
  2
*D4
 70
     1
 10
0.0
 20
0.0
 30
0.0
  3
*D4
  1

  0
LINE
  5
737
330
618
100
AcDbEntity
  8
DIM
 62
     0
100
AcDbLine
 10
729.9442172684733
 20
1809.532916507689
 30
0.0
 11
729.9442172684733
 21
1767.162883673699
 31
0.0
  0
LINE
  5
738
330
618
100
AcDbEntity
  8
DIM
 62
     0
100
AcDbLine
 10
794.9442172684732
 20
1809.532916507689
 30
0.0
 11
794.9442172684732
 21
1767.162883673699
 31
0.0
  0
LINE
  5
739
330
618
100
AcDbEntity
  8
DIM
 62
     0
100
AcDbLine
 10
732.4442172684732
 20
1768.412883673699
 30
0.0
 11
792.4442172684733
 21
1768.412883673699
 31
0.0
  0
SOLID
  5
73A
330
618
100
AcDbEntity
  8
DIM
 62
     0
100
AcDbTrace
 10
732.4442172684732
 20
1768.829550340366
 30
0.0
 11
732.4442172684732
 21
1767.996217007032
 31
0.0
 12
729.9442172684733
 22
1768.412883673699
 32
0.0
 13
729.9442172684733
 23
1768.412883673699
 33
0.0
  0
SOLID
  5
73B
330
618
100
AcDbEntity
  8
DIM
 62
     0
100
AcDbTrace
 10
792.4442172684733
 20
1768.829550340366
 30
0.0
 11
792.4442172684733
 21
1767.996217007032
 31
0.0
 12
794.9442172684732
 22
1768.412883673699
 32
0.0
 13
794.9442172684732
 23
1768.412883673699
 33
0.0
  0
MTEXT
  5
73C
330
618
100
AcDbEntity
  8
DIM
 62
     0
100
AcDbMText
 10
762.4442172684732
 20
1770.287883673699
 30
0.0
 40
2.5
 41
0.0
 71
     5
 72
     1
  1
65
1001
ACAD
1000
MTEXTBEGIN
1070
    73
1070
     1
1070
    44
1040
1.0
1070
    74
1070
     0
1000
MTEXTEND
  0
POINT
  5
73D
330
618
100
AcDbEntity
  8
DEFPOINTS
 62
     0
100
AcDbPoint
 10
729.9442172684733
 20
1810.157916507689
 30
0.0
  0
POINT
  5
73E
330
618
100
AcDbEntity
  8
DEFPOINTS
 62
     0
100
AcDbPoint
 10
794.9442172684732
 20
1810.157916507688
 30
0.0
  0
POINT
  5
73F
330
618
100
AcDbEntity
  8
DEFPOINTS
 62
     0
100
AcDbPoint
 10
794.9442172684732
 20
1768.412883673699
 30
0.0
  0
ENDBLK
  5
623
330
618
100
AcDbEntity
  8
0
100
AcDbBlockEnd
  0
BLOCK
  5
63D
330
633
100
AcDbEntity
  8
0
100
AcDbBlockBegin
  2
*D5
 70
     1
 10
0.0
 20
0.0
 30
0.0
  3
*D5
  1

  0
LINE
  5
740
330
633
100
AcDbEntity
  8
DIM
 62
     0
100
AcDbLine
 10
794.9442172684732
 20
1809.532916507689
 30
0.0
 11
794.9442172684732
 21
1767.162883673699
 31
0.0
  0
LINE
  5
741
330
633
100
AcDbEntity
  8
DIM
 62
     0
100
AcDbLine
 10
859.9442172684732
 20
1809.532916507689
 30
0.0
 11
859.9442172684732
 21
1767.162883673699
 31
0.0
  0
LINE
  5
742
330
633
100
AcDbEntity
  8
DIM
 62
     0
100
AcDbLine
 10
797.4442172684732
 20
1768.412883673699
 30
0.0
 11
857.4442172684733
 21
1768.412883673699
 31
0.0
  0
SOLID
  5
743
330
633
100
AcDbEntity
  8
DIM
 62
     0
100
AcDbTrace
 10
797.4442172684732
 20
1768.829550340366
 30
0.0
 11
797.4442172684732
 21
1767.996217007032
 31
0.0
 12
794.9442172684732
 22
1768.412883673699
 32
0.0
 13
794.9442172684732
 23
1768.412883673699
 33
0.0
  0
SOLID
  5
744
330
633
100
AcDbEntity
  8
DIM
 62
     0
100
AcDbTrace
 10
857.4442172684733
 20
1768.829550340366
 30
0.0
 11
857.4442172684733
 21
1767.996217007032
 31
0.0
 12
859.9442172684732
 22
1768.412883673699
 32
0.0
 13
859.9442172684732
 23
1768.412883673699
 33
0.0
  0
MTEXT
  5
745
330
633
100
AcDbEntity
  8
DIM
 62
     0
100
AcDbMText
 10
827.4442172684732
 20
1770.287883673699
 30
0.0
 40
2.5
 41
0.0
 71
     5
 72
     1
  1
65
1001
ACAD
1000
MTEXTBEGIN
1070
    73
1070
     1
1070
    44
1040
1.0
1070
    74
1070
     0
1000
MTEXTEND
  0
POINT
  5
746
330
633
100
AcDbEntity
  8
DEFPOINTS
 62
     0
100
AcDbPoint
 10
794.9442172684732
 20
1810.157916507688
 30
0.0
  0
POINT
  5
747
330
633
100
AcDbEntity
  8
DEFPOINTS
 62
     0
100
AcDbPoint
 10
859.9442172684732
 20
1810.157916507689
 30
0.0
  0
POINT
  5
748
330
633
100
AcDbEntity
  8
DEFPOINTS
 62
     0
100
AcDbPoint
 10
859.9442172684732
 20
1768.412883673699
 30
0.0
  0
ENDBLK
  5
63E
330
633
100
AcDbEntity
  8
0
100
AcDbBlockEnd
  0
BLOCK
  5
64A
330
640
100
AcDbEntity
  8
0
100
AcDbBlockBegin
  2
*D6
 70
     1
 10
0.0
 20
0.0
 30
0.0
  3
*D6
  1

  0
LINE
  5
749
330
640
100
AcDbEntity
  8
DIM
 62
     0
100
AcDbLine
 10
859.9442172684732
 20
1809.532916507689
 30
0.0
 11
859.9442172684732
 21
1767.162883673699
 31
0.0
  0
LINE
  5
74A
330
640
100
AcDbEntity
  8
DIM
 62
     0
100
AcDbLine
 10
924.9442172684734
 20
1809.532916507689
 30
0.0
 11
924.9442172684734
 21
1767.162883673699
 31
0.0
  0
LINE
  5
74B
330
640
100
AcDbEntity
  8
DIM
 62
     0
100
AcDbLine
 10
862.4442172684732
 20
1768.412883673699
 30
0.0
 11
922.4442172684733
 21
1768.412883673699
 31
0.0
  0
SOLID
  5
74C
330
640
100
AcDbEntity
  8
DIM
 62
     0
100
AcDbTrace
 10
862.4442172684732
 20
1768.829550340366
 30
0.0
 11
862.4442172684732
 21
1767.996217007032
 31
0.0
 12
859.9442172684732
 22
1768.412883673699
 32
0.0
 13
859.9442172684732
 23
1768.412883673699
 33
0.0
  0
SOLID
  5
74D
330
640
100
AcDbEntity
  8
DIM
 62
     0
100
AcDbTrace
 10
922.4442172684733
 20
1768.829550340366
 30
0.0
 11
922.4442172684733
 21
1767.996217007032
 31
0.0
 12
924.9442172684734
 22
1768.412883673699
 32
0.0
 13
924.9442172684734
 23
1768.412883673699
 33
0.0
  0
MTEXT
  5
74E
330
640
100
AcDbEntity
  8
DIM
 62
     0
100
AcDbMText
 10
892.4442172684733
 20
1770.287883673699
 30
0.0
 40
2.5
 41
0.0
 71
     5
 72
     1
  1
65
1001
ACAD
1000
MTEXTBEGIN
1070
    73
1070
     1
1070
    44
1040
1.0
1070
    74
1070
     0
1000
MTEXTEND
  0
POINT
  5
74F
330
640
100
AcDbEntity
  8
DEFPOINTS
 62
     0
100
AcDbPoint
 10
859.9442172684732
 20
1810.157916507689
 30
0.0
  0
POINT
  5
750
330
640
100
AcDbEntity
  8
DEFPOINTS
 62
     0
100
AcDbPoint
 10
924.9442172684734
 20
1810.157916507689
 30
0.0
  0
POINT
  5
751
330
640
100
AcDbEntity
  8
DEFPOINTS
 62
     0
100
AcDbPoint
 10
924.9442172684734
 20
1768.412883673699
 30
0.0
  0
ENDBLK
  5
64B
330
640
100
AcDbEntity
  8
0
100
AcDbBlockEnd
  0
BLOCK
  5
657
330
64D
100
AcDbEntity
  8
0
100
AcDbBlockBegin
  2
*D7
 70
     1
 10
0.0
 20
0.0
 30
0.0
  3
*D7
  1

  0
LINE
  5
752
330
64D
100
AcDbEntity
  8
DIM
 62
     0
100
AcDbLine
 10
924.9442172684734
 20
1809.532916507689
 30
0.0
 11
924.9442172684734
 21
1767.162883673699
 31
0.0
  0
LINE
  5
753
330
64D
100
AcDbEntity
  8
DIM
 62
     0
100
AcDbLine
 10
989.9442172684732
 20
1809.532916507689
 30
0.0
 11
989.9442172684732
 21
1767.162883673699
 31
0.0
  0
LINE
  5
754
330
64D
100
AcDbEntity
  8
DIM
 62
     0
100
AcDbLine
 10
927.4442172684734
 20
1768.412883673699
 30
0.0
 11
987.4442172684732
 21
1768.412883673699
 31
0.0
  0
SOLID
  5
755
330
64D
100
AcDbEntity
  8
DIM
 62
     0
100
AcDbTrace
 10
927.4442172684734
 20
1768.829550340366
 30
0.0
 11
927.4442172684734
 21
1767.996217007032
 31
0.0
 12
924.9442172684734
 22
1768.412883673699
 32
0.0
 13
924.9442172684734
 23
1768.412883673699
 33
0.0
  0
SOLID
  5
756
330
64D
100
AcDbEntity
  8
DIM
 62
     0
100
AcDbTrace
 10
987.4442172684732
 20
1768.829550340366
 30
0.0
 11
987.4442172684732
 21
1767.996217007032
 31
0.0
 12
989.9442172684732
 22
1768.412883673699
 32
0.0
 13
989.9442172684732
 23
1768.412883673699
 33
0.0
  0
MTEXT
  5
757
330
64D
100
AcDbEntity
  8
DIM
 62
     0
100
AcDbMText
 10
957.4442172684733
 20
1770.287883673699
 30
0.0
 40
2.5
 41
0.0
 71
     5
 72
     1
  1
65
1001
ACAD
1000
MTEXTBEGIN
1070
    73
1070
     1
1070
    44
1040
1.0
1070
    74
1070
     0
1000
MTEXTEND
  0
POINT
  5
758
330
64D
100
AcDbEntity
  8
DEFPOINTS
 62
     0
100
AcDbPoint
 10
924.9442172684734
 20
1810.157916507689
 30
0.0
  0
POINT
  5
759
330
64D
100
AcDbEntity
  8
DEFPOINTS
 62
     0
100
AcDbPoint
 10
989.9442172684732
 20
1810.157916507689
 30
0.0
  0
POINT
  5
75A
330
64D
100
AcDbEntity
  8
DEFPOINTS
 62
     0
100
AcDbPoint
 10
989.9442172684732
 20
1768.412883673699
 30
0.0
  0
ENDBLK
  5
658
330
64D
100
AcDbEntity
  8
0
100
AcDbBlockEnd
  0
BLOCK
  5
664
330
65A
100
AcDbEntity
  8
0
100
AcDbBlockBegin
  2
*D8
 70
     1
 10
0.0
 20
0.0
 30
0.0
  3
*D8
  1

  0
LINE
  5
75B
330
65A
100
AcDbEntity
  8
DIM
 62
     0
100
AcDbLine
 10
989.9442172684732
 20
1809.532916507689
 30
0.0
 11
989.9442172684732
 21
1767.162883673699
 31
0.0
  0
LINE
  5
75C
330
65A
100
AcDbEntity
  8
DIM
 62
     0
100
AcDbLine
 10
1054.944217268473
 20
1809.532916507689
 30
0.0
 11
1054.944217268473
 21
1767.162883673699
 31
0.0
  0
LINE
  5
75D
330
65A
100
AcDbEntity
  8
DIM
 62
     0
100
AcDbLine
 10
992.4442172684733
 20
1768.412883673699
 30
0.0
 11
1052.444217268473
 21
1768.412883673699
 31
0.0
  0
SOLID
  5
75E
330
65A
100
AcDbEntity
  8
DIM
 62
     0
100
AcDbTrace
 10
992.4442172684733
 20
1768.829550340366
 30
0.0
 11
992.4442172684733
 21
1767.996217007032
 31
0.0
 12
989.9442172684732
 22
1768.412883673699
 32
0.0
 13
989.9442172684732
 23
1768.412883673699
 33
0.0
  0
SOLID
  5
75F
330
65A
100
AcDbEntity
  8
DIM
 62
     0
100
AcDbTrace
 10
1052.444217268473
 20
1768.829550340366
 30
0.0
 11
1052.444217268473
 21
1767.996217007032
 31
0.0
 12
1054.944217268473
 22
1768.412883673699
 32
0.0
 13
1054.944217268473
 23
1768.412883673699
 33
0.0
  0
MTEXT
  5
760
330
65A
100
AcDbEntity
  8
DIM
 62
     0
100
AcDbMText
 10
1022.444217268473
 20
1770.287883673699
 30
0.0
 40
2.5
 41
0.0
 71
     5
 72
     1
  1
65
1001
ACAD
1000
MTEXTBEGIN
1070
    73
1070
     1
1070
    44
1040
1.0
1070
    74
1070
     0
1000
MTEXTEND
  0
POINT
  5
761
330
65A
100
AcDbEntity
  8
DEFPOINTS
 62
     0
100
AcDbPoint
 10
989.9442172684732
 20
1810.157916507689
 30
0.0
  0
POINT
  5
762
330
65A
100
AcDbEntity
  8
DEFPOINTS
 62
     0
100
AcDbPoint
 10
1054.944217268473
 20
1810.157916507689
 30
0.0
  0
POINT
  5
763
330
65A
100
AcDbEntity
  8
DEFPOINTS
 62
     0
100
AcDbPoint
 10
1054.944217268473
 20
1768.412883673699
 30
0.0
  0
ENDBLK
  5
665
330
65A
100
AcDbEntity
  8
0
100
AcDbBlockEnd
  0
BLOCK
  5
671
330
667
100
AcDbEntity
  8
0
100
AcDbBlockBegin
  2
*D9
 70
     1
 10
0.0
 20
0.0
 30
0.0
  3
*D9
  1

  0
LINE
  5
764
330
667
100
AcDbEntity
  8
DIM
 62
     0
100
AcDbLine
 10
1054.944217268473
 20
1809.532916507689
 30
0.0
 11
1054.944217268473
 21
1767.162883673699
 31
0.0
  0
LINE
  5
765
330
667
100
AcDbEntity
  8
DIM
 62
     0
100
AcDbLine
 10
1119.944217268473
 20
1809.532916507689
 30
0.0
 11
1119.944217268473
 21
1767.162883673699
 31
0.0
  0
LINE
  5
766
330
667
100
AcDbEntity
  8
DIM
 62
     0
100
AcDbLine
 10
1057.444217268473
 20
1768.412883673699
 30
0.0
 11
1117.444217268473
 21
1768.412883673699
 31
0.0
  0
SOLID
  5
767
330
667
100
AcDbEntity
  8
DIM
 62
     0
100
AcDbTrace
 10
1057.444217268473
 20
1768.829550340366
 30
0.0
 11
1057.444217268473
 21
1767.996217007032
 31
0.0
 12
1054.944217268473
 22
1768.412883673699
 32
0.0
 13
1054.944217268473
 23
1768.412883673699
 33
0.0
  0
SOLID
  5
768
330
667
100
AcDbEntity
  8
DIM
 62
     0
100
AcDbTrace
 10
1117.444217268473
 20
1768.829550340366
 30
0.0
 11
1117.444217268473
 21
1767.996217007032
 31
0.0
 12
1119.944217268473
 22
1768.412883673699
 32
0.0
 13
1119.944217268473
 23
1768.412883673699
 33
0.0
  0
MTEXT
  5
769
330
667
100
AcDbEntity
  8
DIM
 62
     0
100
AcDbMText
 10
1087.444217268473
 20
1770.287883673699
 30
0.0
 40
2.5
 41
0.0
 71
     5
 72
     1
  1
65
1001
ACAD
1000
MTEXTBEGIN
1070
    73
1070
     1
1070
    44
1040
1.0
1070
    74
1070
     0
1000
MTEXTEND
  0
POINT
  5
76A
330
667
100
AcDbEntity
  8
DEFPOINTS
 62
     0
100
AcDbPoint
 10
1054.944217268473
 20
1810.157916507689
 30
0.0
  0
POINT
  5
76B
330
667
100
AcDbEntity
  8
DEFPOINTS
 62
     0
100
AcDbPoint
 10
1119.944217268473
 20
1810.157916507689
 30
0.0
  0
POINT
  5
76C
330
667
100
AcDbEntity
  8
DEFPOINTS
 62
     0
100
AcDbPoint
 10
1119.944217268473
 20
1768.412883673699
 30
0.0
  0
ENDBLK
  5
672
330
667
100
AcDbEntity
  8
0
100
AcDbBlockEnd
  0
BLOCK
  5
67E
330
674
100
AcDbEntity
  8
0
100
AcDbBlockBegin
  2
*D10
 70
     1
 10
0.0
 20
0.0
 30
0.0
  3
*D10
  1

  0
LINE
  5
76D
330
674
100
AcDbEntity
  8
DIM
 62
     0
100
AcDbLine
 10
1119.944217268473
 20
1808.907916507689
 30
0.0
 11
1119.944217268473
 21
1767.162883673699
 31
0.0
  0
LINE
  5
76E
330
674
100
AcDbEntity
  8
DIM
 62
     0
100
AcDbLine
 10
1184.944217268473
 20
1809.532916507689
 30
0.0
 11
1184.944217268473
 21
1767.162883673699
 31
0.0
  0
LINE
  5
76F
330
674
100
AcDbEntity
  8
DIM
 62
     0
100
AcDbLine
 10
1122.444217268473
 20
1768.412883673699
 30
0.0
 11
1182.444217268473
 21
1768.412883673699
 31
0.0
  0
SOLID
  5
770
330
674
100
AcDbEntity
  8
DIM
 62
     0
100
AcDbTrace
 10
1122.444217268473
 20
1768.829550340366
 30
0.0
 11
1122.444217268473
 21
1767.996217007032
 31
0.0
 12
1119.944217268473
 22
1768.412883673699
 32
0.0
 13
1119.944217268473
 23
1768.412883673699
 33
0.0
  0
SOLID
  5
771
330
674
100
AcDbEntity
  8
DIM
 62
     0
100
AcDbTrace
 10
1182.444217268473
 20
1768.829550340366
 30
0.0
 11
1182.444217268473
 21
1767.996217007032
 31
0.0
 12
1184.944217268473
 22
1768.412883673699
 32
0.0
 13
1184.944217268473
 23
1768.412883673699
 33
0.0
  0
MTEXT
  5
772
330
674
100
AcDbEntity
  8
DIM
 62
     0
100
AcDbMText
 10
1152.444217268473
 20
1770.287883673699
 30
0.0
 40
2.5
 41
0.0
 71
     5
 72
     1
  1
65
1001
ACAD
1000
MTEXTBEGIN
1070
    73
1070
     1
1070
    44
1040
1.0
1070
    74
1070
     0
1000
MTEXTEND
  0
POINT
  5
773
330
674
100
AcDbEntity
  8
DEFPOINTS
 62
     0
100
AcDbPoint
 10
1119.944217268473
 20
1809.532916507689
 30
0.0
  0
POINT
  5
774
330
674
100
AcDbEntity
  8
DEFPOINTS
 62
     0
100
AcDbPoint
 10
1184.944217268473
 20
1810.157916507689
 30
0.0
  0
POINT
  5
775
330
674
100
AcDbEntity
  8
DEFPOINTS
 62
     0
100
AcDbPoint
 10
1184.944217268473
 20
1768.412883673699
 30
0.0
  0
ENDBLK
  5
67F
330
674
100
AcDbEntity
  8
0
100
AcDbBlockEnd
  0
BLOCK
  5
68B
330
681
100
AcDbEntity
  8
0
100
AcDbBlockBegin
  2
*D11
 70
     1
 10
0.0
 20
0.0
 30
0.0
  3
*D11
  1

  0
LINE
  5
776
330
681
100
AcDbEntity
  8
DIM
 62
     0
100
AcDbLine
 10
1184.944217268473
 20
1808.907916507689
 30
0.0
 11
1184.944217268473
 21
1767.162883673699
 31
0.0
  0
LINE
  5
777
330
681
100
AcDbEntity
  8
DIM
 62
     0
100
AcDbLine
 10
1244.944217268473
 20
1809.532916507689
 30
0.0
 11
1244.944217268473
 21
1767.162883673699
 31
0.0
  0
LINE
  5
778
330
681
100
AcDbEntity
  8
DIM
 62
     0
100
AcDbLine
 10
1187.444217268473
 20
1768.412883673699
 30
0.0
 11
1242.444217268473
 21
1768.412883673699
 31
0.0
  0
SOLID
  5
779
330
681
100
AcDbEntity
  8
DIM
 62
     0
100
AcDbTrace
 10
1187.444217268473
 20
1768.829550340366
 30
0.0
 11
1187.444217268473
 21
1767.996217007032
 31
0.0
 12
1184.944217268473
 22
1768.412883673699
 32
0.0
 13
1184.944217268473
 23
1768.412883673699
 33
0.0
  0
SOLID
  5
77A
330
681
100
AcDbEntity
  8
DIM
 62
     0
100
AcDbTrace
 10
1242.444217268473
 20
1768.829550340366
 30
0.0
 11
1242.444217268473
 21
1767.996217007032
 31
0.0
 12
1244.944217268473
 22
1768.412883673699
 32
0.0
 13
1244.944217268473
 23
1768.412883673699
 33
0.0
  0
MTEXT
  5
77B
330
681
100
AcDbEntity
  8
DIM
 62
     0
100
AcDbMText
 10
1214.944217268473
 20
1770.314346936464
 30
0.0
 40
2.5
 41
0.0
 71
     5
 72
     1
  1
60
1001
ACAD
1000
MTEXTBEGIN
1070
    73
1070
     1
1070
    44
1040
1.0
1070
    74
1070
     0
1000
MTEXTEND
  0
POINT
  5
77C
330
681
100
AcDbEntity
  8
DEFPOINTS
 62
     0
100
AcDbPoint
 10
1184.944217268473
 20
1809.532916507689
 30
0.0
  0
POINT
  5
77D
330
681
100
AcDbEntity
  8
DEFPOINTS
 62
     0
100
AcDbPoint
 10
1244.944217268473
 20
1810.157916507688
 30
0.0
  0
POINT
  5
77E
330
681
100
AcDbEntity
  8
DEFPOINTS
 62
     0
100
AcDbPoint
 10
1244.944217268473
 20
1768.412883673699
 30
0.0
  0
ENDBLK
  5
68C
330
681
100
AcDbEntity
  8
0
100
AcDbBlockEnd
  0
BLOCK
  5
69A
330
68E
100
AcDbEntity
  8
0
100
AcDbBlockBegin
  2
*D12
 70
     1
 10
0.0
 20
0.0
 30
0.0
  3
*D12
  1

  0
LINE
  5
77F
330
68E
100
AcDbEntity
  8
DIM
 62
     0
100
AcDbLine
 10
1244.944217268473
 20
1809.532916507689
 30
0.0
 11
1244.944217268473
 21
1767.162883673699
 31
0.0
  0
LINE
  5
780
330
68E
100
AcDbEntity
  8
DIM
 62
     0
100
AcDbLine
 10
1249.944217268473
 20
1809.532916507689
 30
0.0
 11
1249.944217268473
 21
1767.162883673699
 31
0.0
  0
LINE
  5
781
330
68E
100
AcDbEntity
  8
DIM
 62
     0
100
AcDbLine
 10
1242.444217268473
 20
1768.412883673699
 30
0.0
 11
1239.944217268473
 21
1768.412883673699
 31
0.0
  0
LINE
  5
782
330
68E
100
AcDbEntity
  8
DIM
 62
     0
100
AcDbLine
 10
1252.444217268473
 20
1768.412883673699
 30
0.0
 11
1254.944217268473
 21
1768.412883673699
 31
0.0
  0
LINE
  5
783
330
68E
100
AcDbEntity
  8
DIM
 62
     0
100
AcDbLine
 10
1244.944217268473
 20
1768.412883673699
 30
0.0
 11
1249.944217268473
 21
1768.412883673699
 31
0.0
  0
SOLID
  5
784
330
68E
100
AcDbEntity
  8
DIM
 62
     0
100
AcDbTrace
 10
1242.444217268473
 20
1768.829550340366
 30
0.0
 11
1242.444217268473
 21
1767.996217007032
 31
0.0
 12
1244.944217268473
 22
1768.412883673699
 32
0.0
 13
1244.944217268473
 23
1768.412883673699
 33
0.0
  0
SOLID
  5
785
330
68E
100
AcDbEntity
  8
DIM
 62
     0
100
AcDbTrace
 10
1252.444217268473
 20
1768.829550340366
 30
0.0
 11
1252.444217268473
 21
1767.996217007032
 31
0.0
 12
1249.944217268473
 22
1768.412883673699
 32
0.0
 13
1249.944217268473
 23
1768.412883673699
 33
0.0
  0
MTEXT
  5
786
330
68E
100
AcDbEntity
  8
DIM
 62
     0
100
AcDbMText
 10
1247.444217268473
 20
1770.287883673699
 30
0.0
 40
2.5
 41
0.0
 71
     5
 72
     1
  1
5
1001
ACAD
1000
MTEXTBEGIN
1070
    73
1070
     1
1070
    44
1040
1.0
1070
    74
1070
     0
1000
MTEXTEND
  0
POINT
  5
787
330
68E
100
AcDbEntity
  8
DEFPOINTS
 62
     0
100
AcDbPoint
 10
1244.944217268473
 20
1810.157916507689
 30
0.0
  0
POINT
  5
788
330
68E
100
AcDbEntity
  8
DEFPOINTS
 62
     0
100
AcDbPoint
 10
1249.944217268473
 20
1810.157916507688
 30
0.0
  0
POINT
  5
789
330
68E
100
AcDbEntity
  8
DEFPOINTS
 62
     0
100
AcDbPoint
 10
1249.944217268473
 20
1768.412883673699
 30
0.0
  0
ENDBLK
  5
69B
330
68E
100
AcDbEntity
  8
0
100
AcDbBlockEnd
  0
ENDSEC
  0
SECTION
  2
ENTITIES
  0
LWPOLYLINE
  5
119
330
1F
100
AcDbEntity
  8
EDGES
100
AcDbPolyline
 90
       33
 70
     0
 43
0.0
 10
710.7442172684566
 20
1630.995774702222
 10
706.7102172684665
 20
1630.995774702222
 10
702.7312172684512
 20
1630.995774702222
 10
698.8042172684751
 20
1630.995774702222
 10
694.9292172684247
 20
1630.995774702222
 10
691.1022172684235
 20
1630.995774702222
 10
687.3222172684743
 20
1630.995774702222
 10
683.5882172684657
 20
1630.995774702222
 10
679.8982172684597
 20
1630.995774702222
 10
676.2502172684614
 20
1630.995774702222
 10
672.6422172684758
 20
1630.995774702222
 10
669.0732172684485
 20
1630.995774702222
 10
665.5412172684416
 20
1630.995774702222
 10
662.0442172684599
 20
1630.995774702222
 10
658.5802172684518
 20
1630.995774702222
 10
655.149217268474
 20
1630.995774702222
 10
651.7472172684231
 20
1630.995774702222
 10
648.3732172684719
 20
1630.995774702222
 10
645.0252172684551
 20
1630.995774702222
 10
641.7022172684321
 20
1630.995774702222
 10
638.4022172684646
 20
1630.995774702222
 10
635.1242172684417
 20
1630.995774702222
 10
631.8642172684301
 20
1630.995774702222
 10
628.6222172684299
 20
1630.995774702222
 10
625.3962172684461
 20
1630.995774702222
 10
622.184217268427
 20
1630.995774702222
 10
618.9842172684345
 20
1630.995774702222
 10
615.795217268471
 20
1630.995774702222
 10
612.6142172684305
 20
1630.995774702222
 10
609.4412172684267
 20
1630.995774702222
 10
606.2722172684695
 20
1630.995774702222
 10
603.1072172684455
 20
1630.995774702222
 10
599.9442172684732
 20
1630.995774702222
  0
LWPOLYLINE
  5
11A
330
1F
100
AcDbEntity
  8
EDGES
100
AcDbPolyline
 90
       33
 70
     0
 43
0.0
 10
710.7442172684566
 20
1630.995774702222
 10
706.7102172684665
 20
1630.995774702222
 10
702.7312172684512
 20
1630.995774702222
 10
698.8042172684751
 20
1630.995774702222
 10
694.9292172684247
 20
1630.995774702222
 10
691.1022172684235
 20
1630.995774702222
 10
687.3222172684743
 20
1630.995774702222
 10
683.5882172684657
 20
1630.995774702222
 10
679.8982172684597
 20
1630.995774702222
 10
676.2502172684614
 20
1630.995774702222
 10
672.6422172684758
 20
1630.995774702222
 10
669.0732172684485
 20
1630.995774702222
 10
665.5412172684416
 20
1630.995774702222
 10
662.0442172684599
 20
1630.995774702222
 10
658.5802172684518
 20
1630.995774702222
 10
655.149217268474
 20
1630.995774702222
 10
651.7472172684231
 20
1630.995774702222
 10
648.3732172684719
 20
1630.995774702222
 10
645.0252172684551
 20
1630.995774702222
 10
641.7022172684321
 20
1630.995774702222
 10
638.4022172684646
 20
1630.995774702222
 10
635.1242172684417
 20
1630.995774702222
 10
631.8642172684301
 20
1630.995774702222
 10
628.6222172684299
 20
1630.995774702222
 10
625.3962172684461
 20
1630.995774702222
 10
622.184217268427
 20
1630.995774702222
 10
618.9842172684345
 20
1630.995774702222
 10
615.795217268471
 20
1630.995774702222
 10
612.6142172684305
 20
1630.995774702222
 10
609.4412172684267
 20
1630.995774702222
 10
606.2722172684695
 20
1630.995774702222
 10
603.1072172684455
 20
1630.995774702222
 10
599.9442172684732
 20
1630.995774702222
  0
LWPOLYLINE
  5
11B
330
1F
100
AcDbEntity
  8
EDGES
100
AcDbPolyline
 90
       33
 70
     0
 43
0.0
 10
599.9442172684732
 20
1560.995774702228
 10
618.1602172684685
 20
1559.632774702217
 10
636.5982172684718
 20
1558.299774702229
 10
655.4782172684392
 20
1557.023774702224
 10
675.019217268443
 20
1555.832774702218
 10
695.4402172684419
 20
1554.751774702219
 10
716.9612172684489
 20
1553.810774702222
 10
739.7822172684707
 20
1553.036774702215
 10
763.7902172684514
 20
1552.469774702226
 10
788.6322172684296
 20
1552.157774702217
 10
813.9502172684567
 20
1552.147774702229
 10
839.38621726847
 20
1552.490774702215
 10
864.5792172684716
 20
1553.23177470222
 10
889.1712172684558
 20
1554.419774702219
 10
912.92621726845
 20
1556.080774702218
 10
935.8822172684719
 20
1558.189774702222
 10
958.1112172684536
 20
1560.71777470222
 10
979.6872172684354
 20
1563.632774702222
 10
1000.686217268452
 20
1566.904774702217
 10
1021.17921726844
 20
1570.504774702223
 10
1041.235217268451
 20
1574.398774702226
 10
1060.867217268453
 20
1578.550774702216
 10
1080.067217268465
 20
1582.917774702218
 10
1098.825217268456
 20
1587.459774702219
 10
1117.133217268446
 20
1592.134774702225
 10
1134.982217268459
 20
1596.901774702226
 10
1152.364217268456
 20
1601.719774702226
 10
1169.306217268428
 20
1606.56277470222
 10
1185.878217268425
 20
1611.42577470222
 10
1202.155217268427
 20
1616.303774702225
 10
1218.209217268424
 20
1621.194774702226
 10
1234.115217268453
 20
1626.093774702221
 10
1249.94421726845
 20
1630.995774702222
  0
LWPOLYLINE
  5
11C
330
1F
100
AcDbEntity
  8
EDGES
100
AcDbPolyline
 90
       33
 70
     0
 43
0.0
 10
599.9442172684732
 20
1700.995774702215
 10
618.1602172684685
 20
1702.358774702227
 10
636.5982172684718
 20
1703.691774702215
 10
655.4782172684392
 20
1704.967774702219
 10
675.019217268443
 20
1706.158774702225
 10
695.4402172684419
 20
1707.239774702224
 10
716.9612172684489
 20
1708.180774702222
 10
739.7822172684707
 20
1708.954774702229
 10
763.7902172684514
 20
1709.521774702218
 10
788.6322172684296
 20
1709.833774702226
 10
813.9502172684567
 20
1709.843774702216
 10
839.38621726847
 20
1709.500774702229
 10
864.5792172684716
 20
1708.759774702224
 10
889.1712172684558
 20
1707.571774702225
 10
912.92621726845
 20
1705.910774702226
 10
935.8822172684719
 20
1703.801774702222
 10
958.1112172684536
 20
1701.273774702223
 10
979.6872172684354
 20
1698.358774702222
 10
1000.686217268452
 20
1695.086774702226
 10
1021.17921726844
 20
1691.486774702221
 10
1041.235217268451
 20
1687.592774702218
 10
1060.867217268453
 20
1683.440774702227
 10
1080.067217268465
 20
1679.073774702225
 10
1098.825217268456
 20
1674.531774702225
 10
1117.133217268446
 20
1669.856774702219
 10
1134.982217268459
 20
1665.089774702218
 10
1152.364217268456
 20
1660.271774702218
 10
1169.306217268428
 20
1655.428774702224
 10
1185.878217268425
 20
1650.565774702224
 10
1202.155217268427
 20
1645.687774702218
 10
1218.209217268424
 20
1640.796774702218
 10
1234.115217268453
 20
1635.897774702223
 10
1249.94421726845
 20
1630.995774702222
  0
LWPOLYLINE
  5
11D
330
1F
100
AcDbEntity
  8
EDGES
 62
     4
100
AcDbPolyline
 90
       33
 70
     0
 43
0.0
 10
599.9442172684732
 20
1630.995774702222
 10
599.9442172684732
 20
1627.803774702224
 10
599.9442172684732
 20
1624.629774702222
 10
599.9442172684732
 20
1621.487774702225
 10
599.9442172684732
 20
1618.395774702216
 10
599.9442172684732
 20
1615.369774702225
 10
599.9442172684732
 20
1612.424774702228
 10
599.9442172684732
 20
1609.577774702225
 10
599.9442172684732
 20
1606.845774702216
 10
599.9442172684732
 20
1604.244774702217
 10
599.9442172684732
 20
1601.78977470222
 10
599.9442172684732
 20
1599.499774702217
 10
599.9442172684732
 20
1597.377774702217
 10
599.9442172684732
 20
1595.412774702219
 10
599.9442172684732
 20
1593.590774702215
 10
599.9442172684732
 20
1591.898774702224
 10
599.9442172684732
 20
1590.322774702224
 10
599.9442172684732
 20
1588.848774702222
 10
599.9442172684732
 20
1587.46477470222
 10
599.9442172684732
 20
1586.156774702226
 10
599.9442172684732
 20
1584.910774702217
 10
599.9442172684732
 20
1583.714774702224
 10
599.9442172684732
 20
1582.553774702228
 10
599.9442172684732
 20
1581.422774702227
 10
599.9442172684732
 20
1580.318774702229
 10
599.9442172684732
 20
1579.237774702215
 10
599.9442172684732
 20
1578.176774702223
 10
599.9442172684732
 20
1577.133774702226
 10
599.9442172684732
 20
1576.105774702222
 10
599.9442172684732
 20
1575.089774702228
 10
599.9442172684732
 20
1574.082774702228
 10
599.9442172684732
 20
1573.082774702222
 10
599.9442172684732
 20
1572.085774702224
  0
LWPOLYLINE
  5
11E
330
1F
100
AcDbEntity
  8
EDGES
 62
     4
100
AcDbPolyline
 90
       28
 70
     0
 43
0.0
 10
599.9442172684732
 20
1572.085774702224
 10
599.9442172684732
 20
1571.73877470222
 10
599.9442172684732
 20
1571.391774702228
 10
599.9442172684732
 20
1571.045774702221
 10
599.9442172684732
 20
1570.698774702216
 10
599.9442172684732
 20
1570.352774702223
 10
599.9442172684732
 20
1570.005774702218
 10
599.9442172684732
 20
1569.659774702224
 10
599.9442172684732
 20
1569.313774702217
 10
599.9442172684732
 20
1568.967774702224
 10
599.9442172684732
 20
1568.620774702219
 10
599.9442172684732
 20
1568.274774702226
 10
599.9442172684732
 20
1567.928774702218
 10
599.9442172684732
 20
1567.582774702225
 10
599.9442172684732
 20
1567.23577470222
 10
599.9442172684732
 20
1566.889774702226
 10
599.9442172684732
 20
1566.543774702219
 10
599.9442172684732
 20
1566.196774702228
 10
599.9442172684732
 20
1565.850774702221
 10
599.9442172684732
 20
1565.503774702215
 10
599.9442172684732
 20
1565.156774702225
 10
599.9442172684732
 20
1564.810774702218
 10
599.9442172684732
 20
1564.463774702226
 10
599.9442172684732
 20
1564.116774702222
 10
599.9442172684732
 20
1563.770774702229
 10
599.9442172684732
 20
1563.423774702223
 10
599.9442172684732
 20
1563.076774702219
 10
599.9442172684732
 20
1563.001365568182
  0
LWPOLYLINE
  5
11F
330
1F
100
AcDbEntity
  8
EDGES
 62
     4
100
AcDbPolyline
 90
       33
 70
     0
 43
0.0
 10
599.9442172684732
 20
1630.995774702222
 10
599.9442172684732
 20
1634.18777470222
 10
599.9442172684732
 20
1637.361774702221
 10
599.9442172684732
 20
1640.503774702219
 10
599.9442172684732
 20
1643.595774702228
 10
599.9442172684732
 20
1646.62177470222
 10
599.9442172684732
 20
1649.566774702216
 10
599.9442172684732
 20
1652.413774702219
 10
599.9442172684732
 20
1655.145774702227
 10
599.9442172684732
 20
1657.746774702227
 10
599.9442172684732
 20
1660.201774702224
 10
599.9442172684732
 20
1662.491774702226
 10
599.9442172684732
 20
1664.613774702226
 10
599.9442172684732
 20
1666.578774702224
 10
599.9442172684732
 20
1668.400774702228
 10
599.9442172684732
 20
1670.09277470222
 10
599.9442172684732
 20
1671.66877470222
 10
599.9442172684732
 20
1673.142774702222
 10
599.9442172684732
 20
1674.526774702223
 10
599.9442172684732
 20
1675.834774702218
 10
599.9442172684732
 20
1677.080774702227
 10
599.9442172684732
 20
1678.27677470222
 10
599.9442172684732
 20
1679.437774702216
 10
599.9442172684732
 20
1680.568774702217
 10
599.9442172684732
 20
1681.672774702215
 10
599.9442172684732
 20
1682.753774702228
 10
599.9442172684732
 20
1683.814774702222
 10
599.9442172684732
 20
1684.857774702217
 10
599.9442172684732
 20
1685.885774702222
 10
599.9442172684732
 20
1686.901774702215
 10
599.9442172684732
 20
1687.908774702216
 10
599.9442172684732
 20
1688.908774702221
 10
599.9442172684732
 20
1689.905774702219
  0
LWPOLYLINE
  5
120
330
1F
100
AcDbEntity
  8
EDGES
 62
     4
100
AcDbPolyline
 90
       28
 70
     0
 43
0.0
 10
599.9442172684732
 20
1689.905774702219
 10
599.9442172684732
 20
1690.252774702224
 10
599.9442172684732
 20
1690.599774702215
 10
599.9442172684732
 20
1690.945774702222
 10
599.9442172684732
 20
1691.292774702228
 10
599.9442172684732
 20
1691.63877470222
 10
599.9442172684732
 20
1691.985774702225
 10
599.9442172684732
 20
1692.331774702219
 10
599.9442172684732
 20
1692.677774702226
 10
599.9442172684732
 20
1693.02377470222
 10
599.9442172684732
 20
1693.370774702225
 10
599.9442172684732
 20
1693.716774702218
 10
599.9442172684732
 20
1694.062774702226
 10
599.9442172684732
 20
1694.408774702219
 10
599.9442172684732
 20
1694.755774702224
 10
599.9442172684732
 20
1695.101774702217
 10
599.9442172684732
 20
1695.447774702224
 10
599.9442172684732
 20
1695.794774702216
 10
599.9442172684732
 20
1696.140774702223
 10
599.9442172684732
 20
1696.487774702228
 10
599.9442172684732
 20
1696.834774702219
 10
599.9442172684732
 20
1697.180774702226
 10
599.9442172684732
 20
1697.527774702217
 10
599.9442172684732
 20
1697.874774702222
 10
599.9442172684732
 20
1698.220774702215
 10
599.9442172684732
 20
1698.567774702221
 10
599.9442172684732
 20
1698.914774702225
 10
599.9442172684732
 20
1698.990183836261
  0
LWPOLYLINE
  5
121
330
1F
100
AcDbEntity
  8
EDGES
100
AcDbPolyline
 90
       33
 70
     0
 43
0.0
 10
1224.234217268446
 20
1630.995774702222
 10
1215.209217268438
 20
1630.995774702222
 10
1204.561217268435
 20
1630.995774702222
 10
1192.516217268434
 20
1630.995774702222
 10
1179.303217268427
 20
1630.995774702222
 10
1165.148217268467
 20
1630.995774702222
 10
1150.278217268437
 20
1630.995774702222
 10
1134.91821726845
 20
1630.995774702222
 10
1119.294217268447
 20
1630.995774702222
 10
1103.594217268466
 20
1630.995774702222
 10
1087.84821726843
 20
1630.995774702222
 10
1072.049217268472
 20
1630.995774702222
 10
1056.187217268445
 20
1630.995774702222
 10
1040.256217268422
 20
1630.995774702222
 10
1024.247217268425
 20
1630.995774702222
 10
1008.153217268472
 20
1630.995774702222
 10
991.9662172684704
 20
1630.995774702222
 10
975.6732172684516
 20
1630.995774702222
 10
959.2422172684402
 20
1630.995774702222
 10
942.6352172684753
 20
1630.995774702222
 10
925.8142172684253
 20
1630.995774702222
 10
908.7422172684407
 20
1630.995774702222
 10
891.3822172684442
 20
1630.995774702222
 10
873.6952172684206
 20
1630.995774702222
 10
855.6462172684584
 20
1630.995774702222
 10
837.229217268459
 20
1630.995774702222
 10
818.5742172684351
 20
1630.995774702222
 10
799.8442172684301
 20
1630.995774702222
 10
781.2012172684328
 20
1630.995774702222
 10
762.8082172684296
 20
1630.995774702222
 10
744.8262172684687
 20
1630.995774702222
 10
727.4182172684229
 20
1630.995774702222
 10
710.7442172684566
 20
1630.995774702222
  0
LWPOLYLINE
  5
122
330
1F
100
AcDbEntity
  8
EDGES
100
AcDbPolyline
 90
       33
 70
     0
 43
0.0
 10
1224.234217268446
 20
1630.995774702222
 10
1215.209217268438
 20
1630.995774702222
 10
1204.561217268435
 20
1630.995774702222
 10
1192.516217268434
 20
1630.995774702222
 10
1179.303217268427
 20
1630.995774702222
 10
1165.148217268467
 20
1630.995774702222
 10
1150.278217268437
 20
1630.995774702222
 10
1134.91821726845
 20
1630.995774702222
 10
1119.294217268447
 20
1630.995774702222
 10
1103.594217268466
 20
1630.995774702222
 10
1087.84821726843
 20
1630.995774702222
 10
1072.049217268472
 20
1630.995774702222
 10
1056.187217268445
 20
1630.995774702222
 10
1040.256217268422
 20
1630.995774702222
 10
1024.247217268425
 20
1630.995774702222
 10
1008.153217268472
 20
1630.995774702222
 10
991.9662172684704
 20
1630.995774702222
 10
975.6732172684516
 20
1630.995774702222
 10
959.2422172684402
 20
1630.995774702222
 10
942.6352172684753
 20
1630.995774702222
 10
925.8142172684253
 20
1630.995774702222
 10
908.7422172684407
 20
1630.995774702222
 10
891.3822172684442
 20
1630.995774702222
 10
873.6952172684206
 20
1630.995774702222
 10
855.6462172684584
 20
1630.995774702222
 10
837.229217268459
 20
1630.995774702222
 10
818.5742172684351
 20
1630.995774702222
 10
799.8442172684301
 20
1630.995774702222
 10
781.2012172684328
 20
1630.995774702222
 10
762.8082172684296
 20
1630.995774702222
 10
744.8262172684687
 20
1630.995774702222
 10
727.4182172684229
 20
1630.995774702222
 10
710.7442172684566
 20
1630.995774702222
  0
LINE
  5
123
330
1F
100
AcDbEntity
  8
0
100
AcDbLine
 10
664.9442172684532
 20
1630.995774702222
 30
0.0
 11
664.9442172684532
 21
1703.541004490784
 31
0.0
  0
LWPOLYLINE
  5
124
330
1F
100
AcDbEntity
  8
EDGES
100
AcDbPolyline
 90
       33
 70
     0
 43
0.0
 10
1249.94421726845
 20
1630.995774702222
 10
1249.94421726845
 20
1630.995774702222
 10
1249.94421726845
 20
1630.995774702222
 10
1249.94421726845
 20
1630.995774702222
 10
1249.94421726845
 20
1630.995774702222
 10
1249.94421726845
 20
1630.995774702222
 10
1249.94421726845
 20
1630.995774702222
 10
1249.94421726845
 20
1630.995774702222
 10
1249.94421726845
 20
1630.995774702222
 10
1249.94421726845
 20
1630.995774702222
 10
1249.94421726845
 20
1630.995774702222
 10
1249.94421726845
 20
1630.995774702222
 10
1249.942217268455
 20
1630.995774702222
 10
1249.934217268475
 20
1630.995774702222
 10
1249.913217268471
 20
1630.995774702222
 10
1249.877217268449
 20
1630.995774702222
 10
1249.819217268425
 20
1630.995774702222
 10
1249.735217268466
 20
1630.995774702222
 10
1249.619217268475
 20
1630.995774702222
 10
1249.467217268461
 20
1630.995774702222
 10
1249.274217268436
 20
1630.995774702222
 10
1249.035217268471
 20
1630.995774702222
 10
1248.74021726842
 20
1630.995774702222
 10
1248.33121726843
 20
1630.995774702222
 10
1247.714217268453
 20
1630.995774702222
 10
1246.799217268432
 20
1630.995774702222
 10
1245.491217268438
 20
1630.995774702222
 10
1243.700217268469
 20
1630.995774702222
 10
1241.332217268422
 20
1630.995774702222
 10
1238.294217268475
 20
1630.995774702222
 10
1234.493217268465
 20
1630.995774702222
 10
1229.838217268452
 20
1630.995774702222
 10
1224.234217268446
 20
1630.995774702222
  0
LWPOLYLINE
  5
125
330
1F
100
AcDbEntity
  8
EDGES
100
AcDbPolyline
 90
       33
 70
     0
 43
0.0
 10
1249.94421726845
 20
1630.995774702222
 10
1249.94421726845
 20
1630.995774702222
 10
1249.94421726845
 20
1630.995774702222
 10
1249.94421726845
 20
1630.995774702222
 10
1249.94421726845
 20
1630.995774702222
 10
1249.94421726845
 20
1630.995774702222
 10
1249.94421726845
 20
1630.995774702222
 10
1249.94421726845
 20
1630.995774702222
 10
1249.94421726845
 20
1630.995774702222
 10
1249.94421726845
 20
1630.995774702222
 10
1249.94421726845
 20
1630.995774702222
 10
1249.94421726845
 20
1630.995774702222
 10
1249.942217268455
 20
1630.995774702222
 10
1249.934217268475
 20
1630.995774702222
 10
1249.913217268471
 20
1630.995774702222
 10
1249.877217268449
 20
1630.995774702222
 10
1249.819217268425
 20
1630.995774702222
 10
1249.735217268466
 20
1630.995774702222
 10
1249.619217268475
 20
1630.995774702222
 10
1249.467217268461
 20
1630.995774702222
 10
1249.274217268436
 20
1630.995774702222
 10
1249.035217268471
 20
1630.995774702222
 10
1248.74021726842
 20
1630.995774702222
 10
1248.33121726843
 20
1630.995774702222
 10
1247.714217268453
 20
1630.995774702222
 10
1246.799217268432
 20
1630.995774702222
 10
1245.491217268438
 20
1630.995774702222
 10
1243.700217268469
 20
1630.995774702222
 10
1241.332217268422
 20
1630.995774702222
 10
1238.294217268475
 20
1630.995774702222
 10
1234.493217268465
 20
1630.995774702222
 10
1229.838217268452
 20
1630.995774702222
 10
1224.234217268446
 20
1630.995774702222
  0
LWPOLYLINE
  5
126
330
1F
100
AcDbEntity
  8
EDGES
100
AcDbPolyline
 90
       33
 70
     0
 43
0.0
 10
1249.94421726845
 20
1630.995774702222
 10
1249.94421726845
 20
1630.995774702222
 10
1249.94421726845
 20
1630.995774702222
 10
1249.94421726845
 20
1630.995774702222
 10
1249.94421726845
 20
1630.995774702222
 10
1249.94421726845
 20
1630.995774702222
 10
1249.94421726845
 20
1630.995774702222
 10
1249.94421726845
 20
1630.995774702222
 10
1249.94421726845
 20
1630.995774702222
 10
1249.94421726845
 20
1630.995774702222
 10
1249.94421726845
 20
1630.995774702222
 10
1249.94421726845
 20
1630.995774702222
 10
1249.94421726845
 20
1630.995774702222
 10
1249.94421726845
 20
1630.995774702222
 10
1249.94421726845
 20
1630.995774702222
 10
1249.94421726845
 20
1630.995774702222
 10
1249.94421726845
 20
1630.995774702222
 10
1249.94421726845
 20
1630.995774702222
 10
1249.94421726845
 20
1630.995774702222
 10
1249.94421726845
 20
1630.995774702222
 10
1249.94421726845
 20
1630.995774702222
 10
1249.94421726845
 20
1630.995774702222
 10
1249.94421726845
 20
1630.995774702222
 10
1249.94421726845
 20
1630.995774702222
 10
1249.94421726845
 20
1630.995774702222
 10
1249.94421726845
 20
1630.995774702222
 10
1249.94421726845
 20
1630.995774702222
 10
1249.94421726845
 20
1630.995774702222
 10
1249.94421726845
 20
1630.995774702222
 10
1249.94421726845
 20
1630.995774702222
 10
1249.94421726845
 20
1630.995774702222
 10
1249.94421726845
 20
1630.995774702222
 10
1249.94421726845
 20
1630.995774702222
  0
LWPOLYLINE
  5
127
330
1F
100
AcDbEntity
  8
EDGES
100
AcDbPolyline
 90
       33
 70
     0
 43
0.0
 10
1249.94421726845
 20
1630.995774702222
 10
1249.94421726845
 20
1630.995774702222
 10
1249.94421726845
 20
1630.995774702222
 10
1249.94421726845
 20
1630.995774702222
 10
1249.94421726845
 20
1630.995774702222
 10
1249.94421726845
 20
1630.995774702222
 10
1249.94421726845
 20
1630.995774702222
 10
1249.94421726845
 20
1630.995774702222
 10
1249.94421726845
 20
1630.995774702222
 10
1249.94421726845
 20
1630.995774702222
 10
1249.94421726845
 20
1630.995774702222
 10
1249.94421726845
 20
1630.995774702222
 10
1249.94421726845
 20
1630.995774702222
 10
1249.94421726845
 20
1630.995774702222
 10
1249.94421726845
 20
1630.995774702222
 10
1249.94421726845
 20
1630.995774702222
 10
1249.94421726845
 20
1630.995774702222
 10
1249.94421726845
 20
1630.995774702222
 10
1249.94421726845
 20
1630.995774702222
 10
1249.94421726845
 20
1630.995774702222
 10
1249.94421726845
 20
1630.995774702222
 10
1249.94421726845
 20
1630.995774702222
 10
1249.94421726845
 20
1630.995774702222
 10
1249.94421726845
 20
1630.995774702222
 10
1249.94421726845
 20
1630.995774702222
 10
1249.94421726845
 20
1630.995774702222
 10
1249.94421726845
 20
1630.995774702222
 10
1249.94421726845
 20
1630.995774702222
 10
1249.94421726845
 20
1630.995774702222
 10
1249.94421726845
 20
1630.995774702222
 10
1249.94421726845
 20
1630.995774702222
 10
1249.94421726845
 20
1630.995774702222
 10
1249.94421726845
 20
1630.995774702222
  0
LINE
  5
128
330
1F
100
AcDbEntity
  8
0
100
AcDbLine
 10
1092.993948117473
 20
1384.152321527233
 30
0.0
 11
1092.993948117473
 21
1276.386690990833
 31
0.0
  0
LWPOLYLINE
  5
129
330
1F
100
AcDbEntity
  8
ST5
100
AcDbPolyline
 90
       35
 70
     0
 43
0.0
 10
1092.969606550873
 20
1288.145173393785
 10
1097.648241657805
 20
1288.202120265681
 10
1102.29096306925
 20
1288.278900667035
 10
1106.863758072051
 20
1288.395309939301
 10
1108.582009313749
 20
1288.463643850351
 10
1111.330465889943
 20
1288.579733893464
 10
1115.667767906251
 20
1288.845989996236
 10
1119.840622528583
 20
1289.209918938724
 10
1123.816711060794
 20
1289.688031312836
 10
1127.561577475063
 20
1290.297864952479
 10
1131.043670322736
 20
1291.05467334794
 10
1134.22751561051
 20
1291.970220205028
 10
1137.085539366196
 20
1293.058856277139
 10
1139.628338236352
 20
1294.320900308008
 10
1141.893798891089
 20
1295.739259467406
 10
1143.913370912687
 20
1297.293277772617
 10
1145.713918183841
 20
1298.963215397193
 10
1147.322371877198
 20
1300.730077408791
 10
1148.7633766792
 20
1302.574035092612
 10
1150.059727781989
 20
1304.473384433936
 10
1151.232334172817
 20
1306.406937525221
 10
1152.304638884124
 20
1308.352792457949
 10
1153.299504202528
 20
1310.285673648009
 10
1154.235292104312
 20
1312.17600469423
 10
1155.11746661606
 20
1314.012468767472
 10
1155.950764494577
 20
1315.807264198076
 10
1156.74134643217
 20
1317.577458872864
 10
1157.49527235837
 20
1319.339895881584
 10
1158.218274217486
 20
1321.114983326408
 10
1158.917917669415
 20
1322.920102738139
 10
1159.60025475209
 20
1324.774407835984
 10
1160.270548807053
 20
1326.693752046266
 10
1160.934740154559
 20
1328.697166006918
 10
1161.299743832719
 20
1329.857285805688
 10
1161.599342996869
 20
1330.814005803082
  0
LWPOLYLINE
  5
12A
330
1F
100
AcDbEntity
  8
ST5
100
AcDbPolyline
 90
       35
 70
     0
 43
0.0
 10
1093.018289684074
 20
1288.145173393785
 10
1088.339654577142
 20
1288.202120265681
 10
1083.696933165698
 20
1288.278900667035
 10
1079.124138162896
 20
1288.395309939301
 10
1077.405886921198
 20
1288.463643850351
 10
1074.657430345004
 20
1288.579733893464
 10
1070.320128328696
 20
1288.845989996236
 10
1066.147273706364
 20
1289.209918938724
 10
1062.171185174153
 20
1289.688031312836
 10
1058.426318759885
 20
1290.297864952479
 10
1054.944225912212
 20
1291.05467334794
 10
1051.760380624438
 20
1291.970220205028
 10
1048.902356868751
 20
1293.058856277139
 10
1046.359557998596
 20
1294.320900308008
 10
1044.094097343858
 20
1295.739259467406
 10
1042.07452532226
 20
1297.293277772617
 10
1040.273978051106
 20
1298.963215397193
 10
1038.66552435775
 20
1300.730077408791
 10
1037.224519555748
 20
1302.574035092612
 10
1035.928168452959
 20
1304.473384433936
 10
1034.75556206213
 20
1306.406937525221
 10
1033.683257350823
 20
1308.352792457949
 10
1032.688392032419
 20
1310.285673648009
 10
1031.752604130635
 20
1312.17600469423
 10
1030.870429618887
 20
1314.012468767472
 10
1030.03713174037
 20
1315.807264198076
 10
1029.246549802777
 20
1317.577458872864
 10
1028.492623876577
 20
1319.339895881584
 10
1027.769622017461
 20
1321.114983326408
 10
1027.069978565532
 20
1322.920102738139
 10
1026.387641482857
 20
1324.774407835984
 10
1025.717347427894
 20
1326.693752046266
 10
1025.053156080388
 20
1328.697166006918
 10
1024.688152402228
 20
1329.857285805688
 10
1024.388553238078
 20
1330.814005803082
  0
LWPOLYLINE
  5
12B
330
1F
100
AcDbEntity
  8
ST4
100
AcDbPolyline
 90
       34
 70
     0
 43
0.0
 10
1092.953973488402
 20
1292.239921994595
 10
1097.552105782902
 20
1292.331844674098
 10
1102.108802321483
 20
1292.440574954895
 10
1106.593198301387
 20
1292.580961241121
 10
1110.978726461599
 20
1292.771722774142
 10
1115.233660280391
 20
1293.026443946154
 10
1119.328955475232
 20
1293.361378824571
 10
1123.234619909885
 20
1293.791405369789
 10
1126.919806783745
 20
1294.330724883072
 10
1130.355158774329
 20
1294.992528194413
 10
1133.505679283297
 20
1295.786170765359
 10
1136.346231254645
 20
1296.723201291879
 10
1138.883163602513
 20
1297.804809925548
 10
1141.150359862751
 20
1299.015166971145
 10
1143.177359282299
 20
1300.338502687976
 10
1144.992182112371
 20
1301.756974180532
 10
1146.618909239341
 20
1303.256627850154
 10
1147.595588910888
 20
1304.300763024285
 10
1148.081814120242
 20
1304.821718605766
 10
1149.405998921598
 20
1306.442687152704
 10
1150.613332043386
 20
1308.100147631134
 10
1151.725183341784
 20
1309.777559338701
 10
1152.764130671866
 20
1311.459757360989
 10
1153.745335722887
 20
1313.119653793585
 10
1154.674059188775
 20
1314.748113881381
 10
1155.554012331704
 20
1316.35498483802
 10
1156.392663999987
 20
1317.954889247255
 10
1157.196098346685
 20
1319.561757940707
 10
1157.971072705445
 20
1321.19292240544
 10
1158.725288305064
 20
1322.863950733969
 10
1159.464493124775
 20
1324.587454809578
 10
1160.194126234002
 20
1326.380604281238
 10
1160.92158249798
 20
1328.257815506392
 10
1161.657303719891
 20
1330.245553544531
  0
LWPOLYLINE
  5
12C
330
1F
100
AcDbEntity
  8
ST4
100
AcDbPolyline
 90
       34
 70
     0
 43
0.0
 10
1093.033922746545
 20
1292.239921994595
 10
1088.435790452045
 20
1292.331844674098
 10
1083.879093913464
 20
1292.440574954895
 10
1079.394697933561
 20
1292.580961241121
 10
1075.009169773349
 20
1292.771722774142
 10
1070.754235954556
 20
1293.026443946154
 10
1066.658940759716
 20
1293.361378824571
 10
1062.753276325062
 20
1293.791405369789
 10
1059.068089451202
 20
1294.330724883072
 10
1055.632737460618
 20
1294.992528194413
 10
1052.48221695165
 20
1295.786170765359
 10
1049.641664980303
 20
1296.723201291879
 10
1047.104732632434
 20
1297.804809925548
 10
1044.837536372196
 20
1299.015166971145
 10
1042.810536952649
 20
1300.338502687976
 10
1040.995714122576
 20
1301.756974180532
 10
1039.368986995606
 20
1303.256627850154
 10
1038.392307324059
 20
1304.300763024285
 10
1037.906082114706
 20
1304.821718605766
 10
1036.58189731335
 20
1306.442687152704
 10
1035.374564191562
 20
1308.100147631134
 10
1034.262712893163
 20
1309.777559338701
 10
1033.223765563082
 20
1311.459757360989
 10
1032.24256051206
 20
1313.119653793585
 10
1031.313837046173
 20
1314.748113881381
 10
1030.433883903243
 20
1316.35498483802
 10
1029.595232234961
 20
1317.954889247255
 10
1028.791797888262
 20
1319.561757940707
 10
1028.016823529502
 20
1321.19292240544
 10
1027.262607929883
 20
1322.863950733969
 10
1026.523403110172
 20
1324.587454809578
 10
1025.793770000946
 20
1326.380604281238
 10
1025.066313736967
 20
1328.257815506392
 10
1024.330592515056
 20
1330.245553544531
  0
LWPOLYLINE
  5
12D
330
1F
100
AcDbEntity
  8
ST3
100
AcDbPolyline
 90
       34
 70
     0
 43
0.0
 10
1092.94984120014
 20
1298.209835113046
 10
1097.298885007875
 20
1298.305769902922
 10
1101.606781548607
 20
1298.413542158281
 10
1104.389999933422
 20
1298.500299592713
 10
1105.841675660214
 20
1298.547928051275
 10
1109.98198125099
 20
1298.723963143659
 10
1114.000757742296
 20
1298.947283645155
 10
1117.871358410363
 20
1299.229411826833
 10
1121.566959523549
 20
1299.581608729514
 10
1125.059519395534
 20
1300.014741154578
 10
1128.323839634462
 20
1300.537969518226
 10
1131.330509519031
 20
1301.160205995797
 10
1134.05426811177
 20
1301.888775517442
 10
1136.496719097164
 20
1302.724101339681
 10
1138.688559005297
 20
1303.657139719826
 10
1140.656012196137
 20
1304.675046249329
 10
1142.423327538852
 20
1305.765279302398
 10
1144.015602837219
 20
1306.919911682546
 10
1145.458822576439
 20
1308.130835549046
 10
1146.774657421347
 20
1309.388563726988
 10
1147.984937414726
 20
1310.685696886814
 10
1149.111396112562
 20
1312.015318753713
 10
1150.174627917564
 20
1313.367293800942
 10
1151.187749149893
 20
1314.722988206955
 10
1152.153658158708
 20
1316.076429257619
 10
1153.077338007395
 20
1317.435697077065
 10
1153.963853881095
 20
1318.809651032428
 10
1154.819596059936
 20
1320.211632266489
 10
1155.650572563911
 20
1321.65419194512
 10
1156.463869464344
 20
1323.150424759564
 10
1157.26626493836
 20
1324.710367357856
 10
1158.062735364431
 20
1326.347285104704
 10
1158.85945382879
 20
1328.0720384839
 10
1159.667925716012
 20
1329.911906491986
  0
LWPOLYLINE
  5
12E
330
1F
100
AcDbEntity
  8
ST3
100
AcDbPolyline
 90
       34
 70
     0
 43
0.0
 10
1093.038055034808
 20
1298.209835113046
 10
1088.689011227073
 20
1298.305769902922
 10
1084.38111468634
 20
1298.413542158281
 10
1081.597896301525
 20
1298.500299592713
 10
1080.146220574733
 20
1298.547928051275
 10
1076.005914983958
 20
1298.723963143659
 10
1071.987138492651
 20
1298.947283645155
 10
1068.116537824585
 20
1299.229411826833
 10
1064.420936711398
 20
1299.581608729514
 10
1060.928376839413
 20
1300.014741154578
 10
1057.664056600485
 20
1300.537969518226
 10
1054.657386715916
 20
1301.160205995797
 10
1051.933628123177
 20
1301.888775517442
 10
1049.491177137783
 20
1302.724101339681
 10
1047.29933722965
 20
1303.657139719826
 10
1045.33188403881
 20
1304.675046249329
 10
1043.564568696095
 20
1305.765279302398
 10
1041.972293397728
 20
1306.919911682546
 10
1040.529073658508
 20
1308.130835549046
 10
1039.2132388136
 20
1309.388563726988
 10
1038.002958820221
 20
1310.685696886814
 10
1036.876500122385
 20
1312.015318753713
 10
1035.813268317383
 20
1313.367293800942
 10
1034.800147085054
 20
1314.722988206955
 10
1033.834238076239
 20
1316.076429257619
 10
1032.910558227553
 20
1317.435697077065
 10
1032.024042353852
 20
1318.809651032428
 10
1031.168300175012
 20
1320.211632266489
 10
1030.337323671037
 20
1321.65419194512
 10
1029.524026770603
 20
1323.150424759564
 10
1028.721631296588
 20
1324.710367357856
 10
1027.925160870516
 20
1326.347285104704
 10
1027.128442406157
 20
1328.0720384839
 10
1026.319970518935
 20
1329.911906491986
  0
LWPOLYLINE
  5
12F
330
1F
100
AcDbEntity
  8
ST2
100
AcDbPolyline
 90
       34
 70
     0
 43
0.0
 10
1092.954295856277
 20
1306.202928413144
 10
1096.835303290432
 20
1306.279888900512
 10
1100.678051160437
 20
1306.363752454964
 10
1104.46288804586
 20
1306.462487330227
 10
1108.167137877492
 20
1306.581015356581
 10
1111.769043375924
 20
1306.728194267059
 10
1113.272657401766
 20
1306.806600542994
 10
1115.246714321333
 20
1306.90981920545
 10
1118.578434712
 20
1307.133584081623
 10
1121.741695572814
 20
1307.405002720216
 10
1124.715025164129
 20
1307.730241350329
 10
1127.473345707442
 20
1308.114941631418
 10
1129.996196883861
 20
1308.564309364958
 10
1132.28148163739
 20
1309.080155482088
 10
1134.351158588686
 20
1309.658138999357
 10
1136.224123397208
 20
1310.291613952289
 10
1137.922072819007
 20
1310.976058680456
 10
1139.465309255387
 20
1311.707507911509
 10
1140.874922042045
 20
1312.484005311826
 10
1142.172948442069
 20
1313.300971031697
 10
1143.379878891092
 20
1314.159066868701
 10
1144.514916218118
 20
1315.055643086472
 10
1145.598212408687
 20
1315.991087828504
 10
1146.640737330974
 20
1316.957307175486
 10
1147.644770072285
 20
1317.95275028306
 10
1148.614670932339
 20
1318.981779809129
 10
1149.555268415162
 20
1320.051983429386
 10
1150.472161121901
 20
1321.173054116655
 10
1151.371156576766
 20
1322.352268367539
 10
1152.256016522348
 20
1323.597201191414
 10
1153.132029601324
 20
1324.923214417157
 10
1154.004178973686
 20
1326.343104399775
 10
1154.877691659432
 20
1327.871751599859
 10
1155.770697354159
 20
1329.548475633089
  0
LWPOLYLINE
  5
130
330
1F
100
AcDbEntity
  8
ST2
100
AcDbPolyline
 90
       34
 70
     0
 43
0.0
 10
1093.03360037867
 20
1306.202928413144
 10
1089.152592944515
 20
1306.279888900512
 10
1085.30984507451
 20
1306.363752454964
 10
1081.525008189087
 20
1306.462487330227
 10
1077.820758357455
 20
1306.581015356581
 10
1074.218852859023
 20
1306.728194267059
 10
1072.715238833181
 20
1306.806600542994
 10
1070.741181913615
 20
1306.90981920545
 10
1067.409461522948
 20
1307.133584081623
 10
1064.246200662133
 20
1307.405002720216
 10
1061.272871070818
 20
1307.730241350329
 10
1058.514550527505
 20
1308.114941631418
 10
1055.991699351086
 20
1308.564309364958
 10
1053.706414597557
 20
1309.080155482088
 10
1051.636737646261
 20
1309.658138999357
 10
1049.763772837739
 20
1310.291613952289
 10
1048.06582341594
 20
1310.976058680456
 10
1046.522586979561
 20
1311.707507911509
 10
1045.112974192902
 20
1312.484005311826
 10
1043.814947792878
 20
1313.300971031697
 10
1042.608017343856
 20
1314.159066868701
 10
1041.47298001683
 20
1315.055643086472
 10
1040.38968382626
 20
1315.991087828504
 10
1039.347158903973
 20
1316.957307175486
 10
1038.343126162662
 20
1317.95275028306
 10
1037.373225302608
 20
1318.981779809129
 10
1036.432627819785
 20
1320.051983429386
 10
1035.515735113046
 20
1321.173054116655
 10
1034.616739658181
 20
1322.352268367539
 10
1033.731879712599
 20
1323.597201191414
 10
1032.855866633624
 20
1324.923214417157
 10
1031.983717261262
 20
1326.343104399775
 10
1031.110204575515
 20
1327.871751599859
 10
1030.217198880789
 20
1329.548475633089
  0
LWPOLYLINE
  5
131
330
1F
100
AcDbEntity
  8
ST1
100
AcDbPolyline
 90
       33
 70
     0
 43
0.0
 10
1150.247057281853
 20
1327.022855749478
 10
1149.579940353256
 20
1326.428673369732
 10
1148.590406944683
 20
1325.554915369989
 10
1147.602258781363
 20
1324.699239899829
 10
1146.612637521437
 20
1323.86838661763
 10
1145.619422537774
 20
1323.066471796197
 10
1144.621200011316
 20
1322.301774002664
 10
1143.613913441463
 20
1321.578350471819
 10
1142.59620946472
 20
1320.900508785215
 10
1141.567533871796
 20
1320.274358424308
 10
1140.524484118295
 20
1319.705338355411
 10
1139.461296161215
 20
1319.196180298429
 10
1138.367700980053
 20
1318.745392318239
 10
1137.223925371153
 20
1318.346080608875
 10
1136.014380316361
 20
1317.994683727518
 10
1134.720287945115
 20
1317.687056277982
 10
1133.325248574587
 20
1317.418269859249
 10
1131.818210649515
 20
1317.185902971058
 10
1130.184647936014
 20
1316.987983138739
 10
1128.410363405327
 20
1316.820487562854
 10
1126.483366440829
 20
1316.680253178151
 10
1124.391196958418
 20
1316.562926048836
 10
1122.124214731297
 20
1316.465911088905
 10
1119.687372684945
 20
1316.385510190422
 10
1117.101050670014
 20
1316.321871355766
 10
1114.380303182681
 20
1316.272077294869
 10
1111.542434128496
 20
1316.234199169098
 10
1108.604832040526
 20
1316.20726699377
 10
1105.58444221689
 20
1316.189300365594
 10
1102.496480960091
 20
1316.178314733696
 10
1099.357408388621
 20
1316.172320323949
 10
1096.185317997719
 20
1316.170321527237
 10
1092.993948117473
 20
1316.170321527237
  0
LWPOLYLINE
  5
132
330
1F
100
AcDbEntity
  8
ST1
100
AcDbPolyline
 90
       33
 70
     0
 43
0.0
 10
1035.740838953094
 20
1327.022855749478
 10
1036.407955881692
 20
1326.428673369732
 10
1037.397489290265
 20
1325.554915369989
 10
1038.385637453585
 20
1324.699239899829
 10
1039.37525871351
 20
1323.86838661763
 10
1040.368473697173
 20
1323.066471796197
 10
1041.366696223632
 20
1322.301774002664
 10
1042.373982793484
 20
1321.578350471819
 10
1043.391686770227
 20
1320.900508785215
 10
1044.420362363152
 20
1320.274358424308
 10
1045.463412116652
 20
1319.705338355411
 10
1046.526600073732
 20
1319.196180298429
 10
1047.620195254894
 20
1318.745392318239
 10
1048.763970863795
 20
1318.346080608875
 10
1049.973515918587
 20
1317.994683727518
 10
1051.267608289833
 20
1317.687056277982
 10
1052.66264766036
 20
1317.418269859249
 10
1054.169685585432
 20
1317.185902971058
 10
1055.803248298933
 20
1316.987983138739
 10
1057.577532829621
 20
1316.820487562854
 10
1059.504529794118
 20
1316.680253178151
 10
1061.596699276529
 20
1316.562926048836
 10
1063.863681503651
 20
1316.465911088905
 10
1066.300523550002
 20
1316.385510190422
 10
1068.886845564933
 20
1316.321871355766
 10
1071.607593052266
 20
1316.272077294869
 10
1074.445462106452
 20
1316.234199169098
 10
1077.383064194421
 20
1316.20726699377
 10
1080.403454018057
 20
1316.189300365594
 10
1083.491415274856
 20
1316.178314733696
 10
1086.630487846326
 20
1316.172320323949
 10
1089.802578237228
 20
1316.170321527237
 10
1092.993948117473
 20
1316.170321527237
  0
LINE
  5
133
330
1F
100
AcDbEntity
  8
0
100
AcDbLine
 10
998.7985043554749
 20
1311.730321527244
 30
0.0
 11
1187.189391879473
 21
1311.730321527244
 31
0.0
  0
LINE
  5
134
330
1F
100
AcDbEntity
  8
0
100
AcDbLine
 10
1153.831957639274
 20
1384.152321527233
 30
0.0
 11
1092.993948117473
 21
1384.152321527233
 31
0.0
  0
LINE
  5
135
330
1F
100
AcDbEntity
  8
0
100
AcDbLine
 10
1168.831957639274
 20
1357.932321527238
 30
0.0
 11
1017.155938595673
 21
1357.932321527238
 31
0.0
  0
LINE
  5
136
330
1F
100
AcDbEntity
  8
0
100
AcDbLine
 10
1169.744775756149
 20
1355.562321527239
 30
0.0
 11
1016.243120478798
 21
1355.562321527239
 31
0.0
  0
LINE
  5
137
330
1F
100
AcDbEntity
  8
0
100
AcDbLine
 10
1168.49837031345
 20
1353.496321527239
 30
0.0
 11
1017.489525921497
 21
1353.496321527239
 31
0.0
  0
LINE
  5
138
330
1F
100
AcDbEntity
  8
0
100
AcDbLine
 10
1020.59789888679
 20
1352.067321527238
 30
0.0
 11
1165.367192597847
 21
1352.010094512305
 31
0.0
  0
LINE
  5
139
330
1F
100
AcDbEntity
  8
0
100
AcDbLine
 10
1160.811735448142
 20
1351.230321527234
 30
0.0
 11
1025.176160786806
 21
1351.230321527234
 31
0.0
  0
LINE
  5
13A
330
1F
100
AcDbEntity
  8
0
100
AcDbLine
 10
1035.740838953094
 20
1327.022855749478
 30
0.0
 11
1150.247057281853
 21
1327.022855749478
 31
0.0
  0
LINE
  5
13B
330
1F
100
AcDbEntity
  8
0
100
AcDbLine
 10
1032.155938595673
 20
1384.152321527233
 30
0.0
 11
1092.993948117473
 21
1384.152321527233
 31
0.0
  0
LINE
  5
13C
330
1F
100
AcDbEntity
  8
0
100
AcDbLine
 10
1032.155938595673
 20
1352.062752657044
 30
0.0
 11
1032.155938595673
 21
1384.152321527232
 31
0.0
  0
LWPOLYLINE
  5
13D
330
1F
100
AcDbEntity
  8
ST5
100
AcDbPolyline
 90
       33
 70
     0
 43
0.0
 10
1017.155938595673
 20
1357.932321527238
 10
1017.26788096394
 20
1357.489769706981
 10
1017.504128055276
 20
1356.555792858494
 10
1017.73924990359
 20
1355.622309094901
 10
1017.974062950312
 20
1354.692049747992
 10
1018.20887505035
 20
1353.762793352226
 10
1018.443809336883
 20
1352.835052850417
 10
1018.677742881741
 20
1351.910315546937
 10
1018.911425441475
 20
1350.988567672569
 10
1019.144976924635
 20
1350.070331072013
 10
1019.378713227977
 20
1349.155363320615
 10
1019.611446214792
 20
1348.244408453691
 10
1019.843852452998
 20
1347.338722340768
 10
1020.07644382201
 20
1346.437306005219
 10
1020.308028976154
 20
1345.540911744709
 10
1020.539204871225
 20
1344.651083838194
 10
1020.770564226546
 20
1343.767530438273
 10
1021.000982193335
 20
1342.889747707599
 10
1021.231244333597
 20
1342.018539436597
 10
1021.460342270442
 20
1341.155935900428
 10
1021.68921134287
 20
1340.302154752137
 10
1021.91826143121
 20
1339.454669425238
 10
1022.146208452066
 20
1338.616541077783
 10
1022.374044309114
 20
1337.786780794861
 10
1022.600762886164
 20
1336.967411902345
 10
1022.827441228147
 20
1336.157136250055
 10
1023.053214432038
 20
1335.356486782494
 10
1023.277302762218
 20
1334.569203003004
 10
1023.50255234062
 20
1333.791248512142
 10
1023.725974242908
 20
1333.024663140741
 10
1023.948536612263
 20
1332.271907749267
 10
1024.171241658882
 20
1331.531537194299
 10
1024.394295878366
 20
1330.798644758674
  0
LWPOLYLINE
  5
13E
330
1F
100
AcDbEntity
  8
ST4
100
AcDbPolyline
 90
       33
 70
     0
 43
0.0
 10
1016.243120478798
 20
1355.562321527239
 10
1016.332665892151
 20
1355.267427609528
 10
1016.598573582165
 20
1354.391731607871
 10
1016.86438857544
 20
1353.517340182652
 10
1017.130508269398
 20
1352.64294690254
 10
1017.395229678986
 20
1351.77086467402
 10
1017.660856150263
 20
1350.901087769797
 10
1017.926001903665
 20
1350.031609808689
 10
1018.189531316627
 20
1349.167153476823
 10
1018.453961026193
 20
1348.305012838878
 10
1018.717818879061
 20
1347.445475893793
 10
1018.980045864258
 20
1346.591991865986
 10
1019.243581117404
 20
1345.741491730891
 10
1019.505009968606
 20
1344.89534033451
 10
1019.766907319474
 20
1344.055874681417
 10
1020.028439063371
 20
1343.220370598877
 10
1020.288633387634
 20
1342.390938883108
 10
1020.548709535665
 20
1341.567862644581
 10
1020.807660226439
 20
1340.751172004536
 10
1021.066370525151
 20
1339.942204801153
 10
1021.324397600565
 20
1339.140228756036
 10
1021.581164161457
 20
1338.346043811797
 10
1021.837668385364
 20
1337.559629698895
 10
1022.093257297839
 20
1336.781923358311
 10
1022.347435206814
 20
1336.014425219042
 10
1022.601935386454
 20
1335.254901245531
 10
1022.854258138001
 20
1334.504886767464
 10
1023.106004125146
 20
1333.766497946846
 10
1023.356930648451
 20
1333.037521683459
 10
1023.606783307571
 20
1332.319691028015
 10
1023.85498629358
 20
1331.613647474163
 10
1024.103199107347
 20
1330.91944271214
 10
1024.351201036644
 20
1330.232208450219
  0
LWPOLYLINE
  5
13F
330
1F
100
AcDbEntity
  8
ST3
100
AcDbPolyline
 90
       33
 70
     0
 43
0.0
 10
1017.489525921497
 20
1353.496321527239
 10
1017.545569913397
 20
1353.337978056975
 10
1017.836801994018
 20
1352.513320893838
 10
1018.127674963724
 20
1351.68968059474
 10
1018.418420353731
 20
1350.867400677314
 10
1018.708908372283
 20
1350.046846892963
 10
1018.999757070001
 20
1349.228272723116
 10
1019.289474112797
 20
1348.411070857583
 10
1019.578693762533
 20
1347.599261220077
 10
1019.868405604732
 20
1346.788068061927
 10
1020.156849992671
 20
1345.980623391228
 10
1020.444782090738
 20
1345.178597996826
 10
1020.732940207123
 20
1344.37993138361
 10
1021.020086830169
 20
1343.58629002273
 10
1021.307081354311
 20
1342.797055081368
 10
1021.592919157404
 20
1342.014237962144
 10
1021.878736030117
 20
1341.236457552308
 10
1022.163385520977
 20
1340.465117148795
 10
1022.447859053823
 20
1339.700221530812
 10
1022.731553752404
 20
1338.941711494498
 10
1023.013651394181
 20
1338.191768820115
 10
1023.295702375565
 20
1337.449895288149
 10
1023.577126321901
 20
1336.714016417793
 10
1023.857177791972
 20
1335.987074304061
 10
1024.135563310355
 20
1335.27080124423
 10
1024.413865253671
 20
1334.563656804717
 10
1024.691353033658
 20
1333.864982215748
 10
1024.968036662128
 20
1333.175752388648
 10
1025.241966657991
 20
1332.498344276089
 10
1025.514807038197
 20
1331.834465516986
 10
1025.788474517638
 20
1331.178453941678
 10
1026.060085757412
 20
1330.533500706974
 10
1026.331979345944
 20
1329.897428479763
  0
LWPOLYLINE
  5
140
330
1F
100
AcDbEntity
  8
ST2
100
AcDbPolyline
 90
       33
 70
     0
 43
0.0
 10
1020.59789888679
 20
1352.067321527238
 10
1020.620703637101
 20
1352.010094512305
 10
1020.938543764835
 20
1351.213495198448
 10
1021.256785204954
 20
1350.415890079778
 10
1021.573304291709
 20
1349.621097672652
 10
1021.890821077737
 20
1348.828304188011
 10
1022.207172859282
 20
1348.036925756575
 10
1022.524356918881
 20
1347.2489527783
 10
1022.841107675311
 20
1346.461572349055
 10
1023.1571150622
 20
1345.678033528565
 10
1023.473359453616
 20
1344.897897521969
 10
1023.788594587408
 20
1344.120783062386
 10
1024.103231957977
 20
1343.349124954192
 10
1024.418273974637
 20
1342.580462312273
 10
1024.731951495735
 20
1341.81668244343
 10
1025.045179415777
 20
1341.059963563586
 10
1025.358810413363
 20
1340.306253515429
 10
1025.671051240019
 20
1339.55946096505
 10
1025.983068599725
 20
1338.819165000154
 10
1026.29365767659
 20
1338.086849540979
 10
1026.604187386825
 20
1337.362610919673
 10
1026.913448563784
 20
1336.645957615398
 10
1027.222219557026
 20
1335.939347073189
 10
1027.530372348729
 20
1335.240801355674
 10
1027.836499253207
 20
1334.553497079727
 10
1028.142029691878
 20
1333.878373368494
 10
1028.446657010248
 20
1333.213911191887
 10
1028.749324134671
 20
1332.563373411397
 10
1029.051749350078
 20
1331.925138378912
 10
1029.353205033662
 20
1331.298660443693
 10
1029.65253879465
 20
1330.687276127884
 10
1029.95021528237
 20
1330.091923152498
 10
1030.250570633562
 20
1329.503068582342
  0
LWPOLYLINE
  5
141
330
1F
100
AcDbEntity
  8
ST1
100
AcDbPolyline
 90
       32
 70
     0
 43
0.0
 10
1025.176160786806
 20
1351.230321527234
 10
1025.520950031713
 20
1350.440386513635
 10
1025.868188573471
 20
1349.644839998592
 10
1026.214188573507
 20
1348.850839998592
 10
1026.560765353559
 20
1348.056809623495
 10
1026.907765353604
 20
1347.262809623471
 10
1027.254765353552
 20
1346.467809623538
 10
1027.602004147706
 20
1345.673263218549
 10
1027.948004147721
 20
1344.879263218468
 10
1028.294765353581
 20
1344.08580962345
 10
1028.642188573506
 20
1343.289839998616
 10
1028.98800414771
 20
1342.496263218459
 10
1029.334580480111
 20
1341.703232648012
 10
1029.682004147697
 20
1340.908263218514
 10
1030.028426789302
 20
1340.113293341487
 10
1030.374004147708
 20
1339.320263218523
 10
1030.721004147704
 20
1338.526263218481
 10
1031.067004147647
 20
1337.732263218564
 10
1031.414004147688
 20
1336.938263218547
 10
1031.760426789306
 20
1336.143293341492
 10
1032.10642678939
 20
1335.349293341383
 10
1032.452004147698
 20
1334.556263218514
 10
1032.799004147656
 20
1333.762263218557
 10
1033.145426789382
 20
1332.967293341386
 10
1033.491242335308
 20
1332.17371662612
 10
1033.836819245848
 20
1331.381686307983
 10
1034.184004147687
 20
1330.587263218552
 10
1034.529819331358
 20
1329.793687334589
 10
1034.876819331386
 20
1329.0006873346
 10
1035.222819331398
 20
1328.206687334525
 10
1035.569209754353
 20
1327.415080402472
 10
1035.740838953094
 20
1327.022855749478
  0
LINE
  5
142
330
1F
100
AcDbEntity
  8
0
100
AcDbLine
 10
1153.831957639274
 20
1352.062752657044
 30
0.0
 11
1153.831957639274
 21
1384.152321527232
 31
0.0
  0
LWPOLYLINE
  5
143
330
1F
100
AcDbEntity
  8
ST5
100
AcDbPolyline
 90
       33
 70
     0
 43
0.0
 10
1168.831957639274
 20
1357.932321527238
 10
1168.720015271007
 20
1357.489769706981
 10
1168.483768179671
 20
1356.555792858494
 10
1168.248646331357
 20
1355.622309094901
 10
1168.013833284635
 20
1354.692049747992
 10
1167.779021184597
 20
1353.762793352226
 10
1167.544086898065
 20
1352.835052850417
 10
1167.310153353205
 20
1351.910315546937
 10
1167.076470793472
 20
1350.988567672569
 10
1166.842919310312
 20
1350.070331072013
 10
1166.60918300697
 20
1349.155363320615
 10
1166.376450020155
 20
1348.244408453691
 10
1166.144043781949
 20
1347.338722340768
 10
1165.911452412937
 20
1346.437306005219
 10
1165.679867258793
 20
1345.540911744709
 10
1165.448691363722
 20
1344.651083838194
 10
1165.217332008402
 20
1343.767530438273
 10
1164.986914041613
 20
1342.889747707599
 10
1164.75665190135
 20
1342.018539436597
 10
1164.527553964505
 20
1341.155935900428
 10
1164.298684892077
 20
1340.302154752137
 10
1164.069634803738
 20
1339.454669425238
 10
1163.841687782881
 20
1338.616541077783
 10
1163.613851925833
 20
1337.786780794861
 10
1163.387133348783
 20
1336.967411902345
 10
1163.160455006801
 20
1336.157136250055
 10
1162.934681802909
 20
1335.356486782494
 10
1162.710593472729
 20
1334.569203003004
 10
1162.485343894327
 20
1333.791248512142
 10
1162.261921992039
 20
1333.024663140741
 10
1162.039359622684
 20
1332.271907749267
 10
1161.816654576065
 20
1331.531537194299
 10
1161.593600356582
 20
1330.798644758674
  0
LWPOLYLINE
  5
144
330
1F
100
AcDbEntity
  8
ST4
100
AcDbPolyline
 90
       33
 70
     0
 43
0.0
 10
1169.744775756149
 20
1355.562321527239
 10
1169.655230342796
 20
1355.267427609528
 10
1169.389322652782
 20
1354.391731607871
 10
1169.123507659508
 20
1353.517340182652
 10
1168.857387965549
 20
1352.64294690254
 10
1168.592666555961
 20
1351.77086467402
 10
1168.327040084685
 20
1350.901087769797
 10
1168.061894331283
 20
1350.031609808689
 10
1167.79836491832
 20
1349.167153476823
 10
1167.533935208754
 20
1348.305012838878
 10
1167.270077355887
 20
1347.445475893793
 10
1167.007850370689
 20
1346.591991865986
 10
1166.744315117544
 20
1345.741491730891
 10
1166.482886266341
 20
1344.89534033451
 10
1166.220988915474
 20
1344.055874681417
 10
1165.959457171577
 20
1343.220370598877
 10
1165.699262847313
 20
1342.390938883108
 10
1165.439186699282
 20
1341.567862644581
 10
1165.180236008507
 20
1340.751172004536
 10
1164.921525709796
 20
1339.942204801153
 10
1164.663498634383
 20
1339.140228756036
 10
1164.40673207349
 20
1338.346043811797
 10
1164.150227849584
 20
1337.559629698895
 10
1163.894638937108
 20
1336.781923358311
 10
1163.640461028133
 20
1336.014425219042
 10
1163.385960848493
 20
1335.254901245531
 10
1163.133638096947
 20
1334.504886767464
 10
1162.881892109802
 20
1333.766497946846
 10
1162.630965586497
 20
1333.037521683459
 10
1162.381112927376
 20
1332.319691028015
 10
1162.132909941367
 20
1331.613647474163
 10
1161.8846971276
 20
1330.91944271214
 10
1161.636695198303
 20
1330.232208450219
  0
LWPOLYLINE
  5
145
330
1F
100
AcDbEntity
  8
ST3
100
AcDbPolyline
 90
       33
 70
     0
 43
0.0
 10
1168.49837031345
 20
1353.496321527239
 10
1168.44232632155
 20
1353.337978056975
 10
1168.15109424093
 20
1352.513320893838
 10
1167.860221271223
 20
1351.68968059474
 10
1167.569475881216
 20
1350.867400677314
 10
1167.278987862664
 20
1350.046846892963
 10
1166.988139164946
 20
1349.228272723116
 10
1166.69842212215
 20
1348.411070857583
 10
1166.409202472414
 20
1347.599261220077
 10
1166.119490630215
 20
1346.788068061927
 10
1165.831046242276
 20
1345.980623391228
 10
1165.543114144209
 20
1345.178597996826
 10
1165.254956027824
 20
1344.37993138361
 10
1164.967809404778
 20
1343.58629002273
 10
1164.680814880637
 20
1342.797055081368
 10
1164.394977077543
 20
1342.014237962144
 10
1164.10916020483
 20
1341.236457552308
 10
1163.82451071397
 20
1340.465117148795
 10
1163.540037181124
 20
1339.700221530812
 10
1163.256342482543
 20
1338.941711494498
 10
1162.974244840766
 20
1338.191768820115
 10
1162.692193859383
 20
1337.449895288149
 10
1162.410769913046
 20
1336.714016417793
 10
1162.130718442975
 20
1335.987074304061
 10
1161.852332924593
 20
1335.27080124423
 10
1161.574030981276
 20
1334.563656804717
 10
1161.29654320129
 20
1333.864982215748
 10
1161.01985957282
 20
1333.175752388648
 10
1160.745929576957
 20
1332.498344276089
 10
1160.47308919675
 20
1331.834465516986
 10
1160.199421717309
 20
1331.178453941678
 10
1159.927810477535
 20
1330.533500706974
 10
1159.655916889003
 20
1329.897428479763
  0
LWPOLYLINE
  5
146
330
1F
100
AcDbEntity
  8
ST2
100
AcDbPolyline
 90
       33
 70
     0
 43
0.0
 10
1165.389997348157
 20
1352.067321527238
 10
1165.367192597847
 20
1352.010094512305
 10
1165.049352470113
 20
1351.213495198448
 10
1164.731111029994
 20
1350.415890079778
 10
1164.414591943238
 20
1349.621097672652
 10
1164.097075157211
 20
1348.828304188011
 10
1163.780723375665
 20
1348.036925756575
 10
1163.463539316066
 20
1347.2489527783
 10
1163.146788559636
 20
1346.461572349055
 10
1162.830781172747
 20
1345.678033528565
 10
1162.514536781332
 20
1344.897897521969
 10
1162.19930164754
 20
1344.120783062386
 10
1161.884664276971
 20
1343.349124954192
 10
1161.569622260311
 20
1342.580462312273
 10
1161.255944739213
 20
1341.81668244343
 10
1160.94271681917
 20
1341.059963563586
 10
1160.629085821585
 20
1340.306253515429
 10
1160.316844994929
 20
1339.55946096505
 10
1160.004827635223
 20
1338.819165000154
 10
1159.694238558357
 20
1338.086849540979
 10
1159.383708848123
 20
1337.362610919673
 10
1159.074447671163
 20
1336.645957615398
 10
1158.765676677922
 20
1335.939347073189
 10
1158.457523886218
 20
1335.240801355674
 10
1158.15139698174
 20
1334.553497079727
 10
1157.845866543069
 20
1333.878373368494
 10
1157.5412392247
 20
1333.213911191887
 10
1157.238572100277
 20
1332.563373411397
 10
1156.936146884869
 20
1331.925138378912
 10
1156.634691201285
 20
1331.298660443693
 10
1156.335357440297
 20
1330.687276127884
 10
1156.037680952577
 20
1330.091923152498
 10
1155.737325601385
 20
1329.503068582342
  0
LWPOLYLINE
  5
147
330
1F
100
AcDbEntity
  8
ST1
100
AcDbPolyline
 90
       32
 70
     0
 43
0.0
 10
1160.811735448142
 20
1351.230321527234
 10
1160.466946203234
 20
1350.440386513635
 10
1160.119707661476
 20
1349.644839998592
 10
1159.77370766144
 20
1348.850839998592
 10
1159.427130881388
 20
1348.056809623495
 10
1159.080130881344
 20
1347.262809623471
 10
1158.733130881395
 20
1346.467809623538
 10
1158.385892087241
 20
1345.673263218549
 10
1158.039892087227
 20
1344.879263218468
 10
1157.693130881366
 20
1344.08580962345
 10
1157.345707661441
 20
1343.289839998616
 10
1156.999892087237
 20
1342.496263218459
 10
1156.653315754836
 20
1341.703232648012
 10
1156.305892087251
 20
1340.908263218514
 10
1155.959469445645
 20
1340.113293341487
 10
1155.613892087239
 20
1339.320263218523
 10
1155.266892087243
 20
1338.526263218481
 10
1154.9208920873
 20
1337.732263218564
 10
1154.573892087259
 20
1336.938263218547
 10
1154.227469445641
 20
1336.143293341492
 10
1153.881469445557
 20
1335.349293341383
 10
1153.535892087249
 20
1334.556263218514
 10
1153.188892087291
 20
1333.762263218557
 10
1152.842469445566
 20
1332.967293341386
 10
1152.496653899639
 20
1332.17371662612
 10
1152.151076989099
 20
1331.381686307983
 10
1151.803892087261
 20
1330.587263218552
 10
1151.45807690359
 20
1329.793687334589
 10
1151.111076903561
 20
1329.0006873346
 10
1150.76507690355
 20
1328.206687334525
 10
1150.418686480594
 20
1327.415080402472
 10
1150.247057281853
 20
1327.022855749478
  0
LINE
  5
148
330
1F
100
AcDbEntity
  8
0
100
AcDbLine
 10
656.7223719287563
 20
1319.29512032406
 30
0.0
 11
817.3762380002452
 21
1319.29512032406
 31
0.0
  0
LINE
  5
149
330
1F
100
AcDbEntity
  8
0
100
AcDbLine
 10
793.8198109789177
 20
1391.717120324049
 30
0.0
 11
737.0493049645006
 21
1391.717120324049
 31
0.0
  0
LINE
  5
14A
330
1F
100
AcDbEntity
  8
0
100
AcDbLine
 10
808.8198109789177
 20
1367.943120324046
 30
0.0
 11
665.2787989500835
 21
1367.943120324046
 31
0.0
  0
LWPOLYLINE
  5
14B
330
1F
100
AcDbEntity
  8
ST6
100
AcDbPolyline
 90
       33
 70
     0
 43
0.0
 10
737.0365579706631
 20
1293.957079702184
 10
741.581894517592
 20
1293.986049979075
 10
746.0975036340914
 20
1294.035891139303
 10
750.5506194117188
 20
1294.128374338786
 10
754.909801208651
 20
1294.285051027574
 10
759.1424871908425
 20
1294.529149425335
 10
763.214497926355
 20
1294.881525505425
 10
767.0925394907917
 20
1295.360283981824
 10
770.7413619525253
 20
1295.986240738703
 10
774.1246484944465
 20
1296.776701254049
 10
777.2077787053886
 20
1297.744218687696
 10
779.9630320609192
 20
1298.902698769525
 10
782.4029172292721
 20
1300.25623202455
 10
784.5676439593842
 20
1301.786070966339
 10
786.4889129758576
 20
1303.470077624778
 10
788.1967344182233
 20
1305.288711908795
 10
789.6993386700255
 20
1307.197374843865
 10
791.0513197458117
 20
1309.230067061821
 10
792.2493102125622
 20
1311.310335539501
 10
793.3261673476381
 20
1313.426485025937
 10
794.3041338238254
 20
1315.548818244359
 10
795.2079563534464
 20
1317.650525258269
 10
796.0568533872101
 20
1319.696000608013
 10
796.8579811901483
 20
1321.673041250393
 10
797.614779585383
 20
1323.595210246389
 10
798.3307466962051
 20
1325.482400796468
 10
799.0129417165176
 20
1327.353507947667
 10
799.663889625888
 20
1329.229537852792
 10
800.2920203838012
 20
1331.131651684017
 10
800.8995419999383
 20
1333.07828091422
 10
801.4937469409012
 20
1335.09049731478
 10
802.0778827166061
 20
1337.189241900661
 10
802.6624032533309
 20
1339.406045977037
  0
LWPOLYLINE
  5
14C
330
1F
100
AcDbEntity
  8
ST7
100
AcDbPolyline
 90
       33
 70
     0
 43
0.0
 10
737.047831125553
 20
1294.824119781009
 10
741.1139128226002
 20
1294.827116156607
 10
745.1647989278503
 20
1294.850025028113
 10
749.171491334205
 20
1294.91754797325
 10
753.102956115025
 20
1295.051136633056
 10
756.9285707030348
 20
1295.274839495375
 10
760.61501121534
 20
1295.60916827587
 10
764.1292500617187
 20
1296.076694508203
 10
767.4365847007382
 20
1296.695673049396
 10
770.4994251542923
 20
1297.484051427292
 10
773.2836071115996
 20
1298.455977201716
 10
775.7653411703052
 20
1299.624722302386
 10
777.9574071036477
 20
1300.996596341782
 10
779.8987522537752
 20
1302.5527830055
 10
781.6093107514334
 20
1304.280796181688
 10
783.127072287723
 20
1306.157588105813
 10
784.4716474025378
 20
1308.155242562171
 10
785.6640481336151
 20
1310.246675590491
 10
786.722343306867
 20
1312.404374060163
 10
787.669855647996
 20
1314.598816505736
 10
788.5274178929116
 20
1316.799795373242
 10
789.3181545712173
 20
1318.97580017246
 10
790.0627813554697
 20
1321.090540239795
 10
790.7671790762674
 20
1323.131207261586
 10
791.43349462017
 20
1325.112306155653
 10
792.0650398767222
 20
1327.053466419025
 10
792.66661726288
 20
1328.973772558094
 10
793.2396273618905
 20
1330.895969946989
 10
793.7898473744312
 20
1332.841461138447
 10
794.3212575897603
 20
1334.830059291154
 10
794.8369991201143
 20
1336.8821780762
 10
795.3404460209235
 20
1339.019359527834
 10
795.8394865550737
 20
1341.275977082473
  0
LINE
  5
14D
330
1F
100
AcDbEntity
  8
0
100
AcDbLine
 10
800.7897572401471
 20
1370.437120324059
 30
0.0
 11
673.3088526888543
 21
1370.437120324059
 31
0.0
  0
LWPOLYLINE
  5
14E
330
1F
100
AcDbEntity
  8
ST8
100
AcDbPolyline
 90
       33
 70
     0
 43
0.0
 10
737.0505691867481
 20
1298.170119924488
 10
740.2079660364773
 20
1298.168124098419
 10
743.3695190857488
 20
1298.187002007884
 10
746.5132495509362
 20
1298.249303052016
 10
749.6118894589583
 20
1298.377183429171
 10
752.6401029680784
 20
1298.593205115922
 10
755.5682759446264
 20
1298.920174729263
 10
758.3697615453029
 20
1299.376834187166
 10
761.0112950228388
 20
1299.98188878091
 10
763.4640979592079
 20
1300.753010345019
 10
765.7006765522883
 20
1301.702223856388
 10
767.7043514551926
 20
1302.846406277277
 10
769.4940516178023
 20
1304.197683915158
 10
771.0984429089628
 20
1305.744128793976
 10
772.530465869076
 20
1307.473726857665
 10
773.8140896818115
 20
1309.36200993388
 10
774.9580877432642
 20
1311.375521723222
 10
775.9761285100767
 20
1313.48669683344
 10
776.8835164791903
 20
1315.664427959311
 10
777.6945399624588
 20
1317.875605484801
 10
778.4268635493804
 20
1320.090175477348
 10
779.099849573914
 20
1322.277873448651
 10
779.7302293757952
 20
1324.400317568837
 10
780.3233372337806
 20
1326.445893916665
 10
780.8827743244535
 20
1328.43070529689
 10
781.410602769927
 20
1330.372678245359
 10
781.9110563532404
 20
1332.292402366434
 10
782.3875029014368
 20
1334.211038777193
 10
782.8449871085265
 20
1336.147688984443
 10
783.2856331337804
 20
1338.123680129028
 10
783.7137854377481
 20
1340.158639578437
 10
784.1334094434117
 20
1342.273584154109
 10
784.5493915158113
 20
1344.497794517165
  0
LINE
  5
14F
330
1F
100
AcDbEntity
  8
0
100
AcDbLine
 10
788.7294429738345
 20
1373.110120324046
 30
0.0
 11
685.3691669551669
 21
1373.110120324046
 31
0.0
  0
LWPOLYLINE
  5
150
330
1F
100
AcDbEntity
  8
GRID
100
AcDbPolyline
 90
        2
 70
     0
 43
0.0
 10
657.0493049644599
 20
1319.29512032406
 10
817.0493049644854
 20
1319.29512032406
  0
LINE
  5
151
330
1F
100
AcDbEntity
  8
0
100
AcDbLine
 10
737.0493049645006
 20
1391.717120324049
 30
0.0
 11
737.0493049645006
 21
1277.350514042244
 31
0.0
  0
LWPOLYLINE
  5
152
330
1F
100
AcDbEntity
  8
ST6
100
AcDbPolyline
 90
       33
 70
     0
 43
0.0
 10
737.0620519583383
 20
1293.957079702184
 10
732.5167154114094
 20
1293.986049979075
 10
728.00110629491
 20
1294.035891139303
 10
723.5479905172826
 20
1294.128374338786
 10
719.1888087203503
 20
1294.285051027574
 10
714.9561227381589
 20
1294.529149425335
 10
710.8841120026463
 20
1294.881525505425
 10
707.0060704382094
 20
1295.360283981824
 10
703.3572479764759
 20
1295.986240738703
 10
699.9739614345549
 20
1296.776701254049
 10
696.8908312236126
 20
1297.744218687696
 10
694.1355778680819
 20
1298.902698769525
 10
691.6956926997291
 20
1300.25623202455
 10
689.5309659696172
 20
1301.786070966339
 10
687.6096969531438
 20
1303.470077624778
 10
685.9018755107779
 20
1305.288711908795
 10
684.3992712589757
 20
1307.197374843865
 10
683.0472901831897
 20
1309.230067061821
 10
681.849299716439
 20
1311.310335539501
 10
680.7724425813632
 20
1313.426485025937
 10
679.7944761051758
 20
1315.548818244359
 10
678.8906535755548
 20
1317.650525258269
 10
678.0417565417913
 20
1319.696000608013
 10
677.2406287388528
 20
1321.673041250393
 10
676.4838303436183
 20
1323.595210246389
 10
675.767863232796
 20
1325.482400796468
 10
675.0856682124838
 20
1327.353507947667
 10
674.4347203031131
 20
1329.229537852792
 10
673.8065895452002
 20
1331.131651684017
 10
673.1990679290632
 20
1333.07828091422
 10
672.6048629881002
 20
1335.09049731478
 10
672.0207272123952
 20
1337.189241900661
 10
671.4362066756705
 20
1339.406045977037
  0
LWPOLYLINE
  5
153
330
1F
100
AcDbEntity
  8
ST7
100
AcDbPolyline
 90
       33
 70
     0
 43
0.0
 10
737.0507788034483
 20
1294.824119781009
 10
732.9846971064009
 20
1294.827116156607
 10
728.9338110011508
 20
1294.850025028113
 10
724.9271185947963
 20
1294.91754797325
 10
720.9956538139763
 20
1295.051136633056
 10
717.1700392259666
 20
1295.274839495375
 10
713.4835987136614
 20
1295.60916827587
 10
709.9693598672825
 20
1296.076694508203
 10
706.6620252282632
 20
1296.695673049396
 10
703.5991847747088
 20
1297.484051427292
 10
700.8150028174018
 20
1298.455977201716
 10
698.333268758696
 20
1299.624722302386
 10
696.1412028253534
 20
1300.996596341782
 10
694.1998576752261
 20
1302.5527830055
 10
692.489299177568
 20
1304.280796181688
 10
690.9715376412784
 20
1306.157588105813
 10
689.6269625264633
 20
1308.155242562171
 10
688.4345617953861
 20
1310.246675590491
 10
687.3762666221341
 20
1312.404374060163
 10
686.4287542810054
 20
1314.598816505736
 10
685.5711920360898
 20
1316.799795373242
 10
684.7804553577839
 20
1318.97580017246
 10
684.0358285735317
 20
1321.090540239795
 10
683.331430852734
 20
1323.131207261586
 10
682.6651153088314
 20
1325.112306155653
 10
682.033570052279
 20
1327.053466419025
 10
681.4319926661212
 20
1328.973772558094
 10
680.8589825671108
 20
1330.895969946989
 10
680.30876255457
 20
1332.841461138447
 10
679.7773523392411
 20
1334.830059291154
 10
679.2616108088869
 20
1336.8821780762
 10
678.7581639080778
 20
1339.019359527834
 10
678.2591233739276
 20
1341.275977082473
  0
LWPOLYLINE
  5
154
330
1F
100
AcDbEntity
  8
ST8
100
AcDbPolyline
 90
       33
 70
     0
 43
0.0
 10
737.0480407422533
 20
1298.170119924488
 10
733.8906438925241
 20
1298.168124098419
 10
730.7290908432526
 20
1298.187002007884
 10
727.5853603780651
 20
1298.249303052016
 10
724.486720470043
 20
1298.377183429171
 10
721.4585069609229
 20
1298.593205115922
 10
718.5303339843748
 20
1298.920174729263
 10
715.7288483836985
 20
1299.376834187166
 10
713.0873149061626
 20
1299.98188878091
 10
710.6345119697935
 20
1300.753010345019
 10
708.3979333767128
 20
1301.702223856388
 10
706.3942584738086
 20
1302.846406277277
 10
704.6045583111991
 20
1304.197683915158
 10
703.0001670200386
 20
1305.744128793976
 10
701.5681440599252
 20
1307.473726857665
 10
700.2845202471899
 20
1309.36200993388
 10
699.1405221857369
 20
1311.375521723222
 10
698.1224814189247
 20
1313.48669683344
 10
697.215093449811
 20
1315.664427959311
 10
696.4040699665424
 20
1317.875605484801
 10
695.6717463796207
 20
1320.090175477348
 10
694.9987603550873
 20
1322.277873448651
 10
694.3683805532061
 20
1324.400317568837
 10
693.7752726952208
 20
1326.445893916665
 10
693.2158356045476
 20
1328.43070529689
 10
692.6880071590744
 20
1330.372678245359
 10
692.187553575761
 20
1332.292402366434
 10
691.7111070275645
 20
1334.211038777193
 10
691.2536228204749
 20
1336.147688984443
 10
690.8129767952207
 20
1338.123680129028
 10
690.3848244912531
 20
1340.158639578437
 10
689.9652004855897
 20
1342.273584154109
 10
689.5492184131901
 20
1344.497794517165
  0
LWPOLYLINE
  5
155
330
1F
100
AcDbEntity
  8
ST9
100
AcDbPolyline
 90
       35
 70
     0
 43
0.0
 10
737.0341825234752
 20
1303.830063151186
 10
738.0885313383728
 20
1303.838035542975
 10
739.056313389342
 20
1303.84888732948
 10
741.0957672561807
 20
1303.891273272586
 10
743.1296537985015
 20
1303.974229297581
 10
745.1403322794335
 20
1304.117090754698
 10
747.1095261519397
 20
1304.341079409124
 10
749.0178552711829
 20
1304.665401353032
 10
750.8481799462963
 20
1305.106789052745
 10
752.5789742825568
 20
1305.680693575566
 10
754.1933795109432
 20
1306.403747654698
 10
755.6811265514816
 20
1307.290623315533
 10
757.0409333821899
 20
1308.365799233402
 10
758.2915494729434
 20
1309.656871259579
 10
759.447795024098
 20
1311.159810375535
 10
760.5087135491933
 20
1312.851396238711
 10
761.4730450801675
 20
1314.700632769499
 10
761.728190129703
 20
1315.281494903621
 10
762.3432221183338
 20
1316.681489226278
 10
763.1237068703351
 20
1318.759589731497
 10
763.8233637398561
 20
1320.901080923307
 10
764.4504659800393
 20
1323.074516016735
 10
765.016106604198
 20
1325.245909400551
 10
765.5300499000597
 20
1327.384544842875
 10
766.0036156697542
 20
1329.457138127862
 10
766.4418389981674
 20
1331.454920948474
 10
766.8491317529535
 20
1333.39426868849
 10
767.2293810879343
 20
1335.290564200191
 10
767.5858706796498
 20
1337.165105303302
 10
767.9247226443173
 20
1339.03671747077
 10
768.2489878607523
 20
1340.922810564375
 10
768.5646585482973
 20
1342.842644242762
 10
768.8748235178975
 20
1344.815969449933
 10
769.186392828735
 20
1346.861576267056
 10
769.5017002026339
 20
1348.999879122343
  0
LWPOLYLINE
  5
156
330
1F
100
AcDbEntity
  8
ST9
100
AcDbPolyline
 90
       35
 70
     0
 43
0.0
 10
737.0644274055259
 20
1303.830063151186
 10
736.0100785906284
 20
1303.838035542975
 10
735.0422965396594
 20
1303.84888732948
 10
733.0028426728206
 20
1303.891273272586
 10
730.9689561304999
 20
1303.974229297581
 10
728.9582776495676
 20
1304.117090754698
 10
726.9890837770615
 20
1304.341079409124
 10
725.0807546578185
 20
1304.665401353032
 10
723.250429982705
 20
1305.106789052745
 10
721.5196356464444
 20
1305.680693575566
 10
719.9052304180579
 20
1306.403747654698
 10
718.4174833775196
 20
1307.290623315533
 10
717.0576765468115
 20
1308.365799233402
 10
715.8070604560577
 20
1309.656871259579
 10
714.6508149049034
 20
1311.159810375535
 10
713.5898963798081
 20
1312.851396238711
 10
712.6255648488339
 20
1314.700632769499
 10
712.3704197992981
 20
1315.281494903621
 10
711.7553878106676
 20
1316.681489226278
 10
710.9749030586661
 20
1318.759589731497
 10
710.2752461891452
 20
1320.901080923307
 10
709.6481439489618
 20
1323.074516016735
 10
709.0825033248031
 20
1325.245909400551
 10
708.5685600289416
 20
1327.384544842875
 10
708.0949942592472
 20
1329.457138127862
 10
707.6567709308339
 20
1331.454920948474
 10
707.2494781760479
 20
1333.39426868849
 10
706.8692288410668
 20
1335.290564200191
 10
706.5127392493514
 20
1337.165105303302
 10
706.173887284684
 20
1339.03671747077
 10
705.8496220682489
 20
1340.922810564375
 10
705.5339513807041
 20
1342.842644242762
 10
705.2237864111039
 20
1344.815969449933
 10
704.9122171002664
 20
1346.861576267056
 10
704.5969097263675
 20
1348.999879122343
  0
LINE
  5
157
330
1F
100
AcDbEntity
  8
0
100
AcDbLine
 10
737.0493049645006
 20
1309.508120324058
 30
0.0
 11
737.0493049645006
 21
1359.285120324049
 31
0.0
  0
LWPOLYLINE
  5
158
330
1F
100
AcDbEntity
  8
ST10
100
AcDbPolyline
 90
       33
 70
     0
 43
0.0
 10
736.8198078692401
 20
1311.494909463163
 10
737.7202822939546
 20
1311.59892466073
 10
738.6397182904161
 20
1311.713134351309
 10
739.5530284213541
 20
1311.854775600225
 10
740.4451307946274
 20
1312.039530529597
 10
741.3118140548358
 20
1312.287154318235
 10
742.1489879784087
 20
1312.607686460234
 10
742.9499329727304
 20
1313.014172057937
 10
743.7167973582216
 20
1313.524887927043
 10
744.4525341912422
 20
1314.161628953695
 10
745.1616981959507
 20
1314.957217273328
 10
745.8464285197205
 20
1315.949531475722
 10
746.5048748631631
 20
1317.168096175261
 10
747.1291389125524
 20
1318.598244955115
 10
747.7095205851689
 20
1320.207399947506
 10
748.2427884252119
 20
1321.963374763617
 10
748.7280313303154
 20
1323.831174834723
 10
749.1647649425114
 20
1325.781918302528
 10
749.5575134667185
 20
1327.786694351431
 10
749.9099691732044
 20
1329.814050992094
 10
750.2262943373223
 20
1331.835181557587
 10
750.5101798034433
 20
1333.822379820728
 10
750.7679893405879
 20
1335.746035597686
 10
751.002100900069
 20
1337.603056103174
 10
751.2164060711461
 20
1339.408775600489
 10
751.4138757666212
 20
1341.180048999517
 10
751.5974886469589
 20
1342.933800132373
 10
751.7694328653231
 20
1344.688028718399
 10
751.935631206453
 20
1346.460479290815
 10
752.0970732018429
 20
1348.267234461579
 10
752.259828893257
 20
1350.128440650014
 10
752.4267316255482
 20
1352.057316538446
 10
752.6007129356492
 20
1354.073099993229
  0
LWPOLYLINE
  5
159
330
1F
100
AcDbEntity
  8
ST10
100
AcDbPolyline
 90
       33
 70
     0
 43
0.0
 10
737.2788020597613
 20
1311.494909463163
 10
736.3783276350466
 20
1311.59892466073
 10
735.4588916385851
 20
1311.713134351309
 10
734.545581507647
 20
1311.854775600225
 10
733.6534791343738
 20
1312.039530529597
 10
732.7867958741656
 20
1312.287154318235
 10
731.9496219505927
 20
1312.607686460234
 10
731.1486769562709
 20
1313.014172057937
 10
730.3818125707796
 20
1313.524887927043
 10
729.646075737759
 20
1314.161628953695
 10
728.9369117330506
 20
1314.957217273328
 10
728.2521814092809
 20
1315.949531475722
 10
727.5937350658382
 20
1317.168096175261
 10
726.969471016449
 20
1318.598244955115
 10
726.3890893438324
 20
1320.207399947506
 10
725.8558215037892
 20
1321.963374763617
 10
725.370578598686
 20
1323.831174834723
 10
724.9338449864899
 20
1325.781918302528
 10
724.5410964622829
 20
1327.786694351431
 10
724.1886407557967
 20
1329.814050992094
 10
723.8723155916789
 20
1331.835181557587
 10
723.588430125558
 20
1333.822379820728
 10
723.3306205884132
 20
1335.746035597686
 10
723.0965090289323
 20
1337.603056103174
 10
722.8822038578552
 20
1339.408775600489
 10
722.6847341623802
 20
1341.180048999517
 10
722.5011212820425
 20
1342.933800132373
 10
722.3291770636783
 20
1344.688028718399
 10
722.1629787225483
 20
1346.460479290815
 10
722.0015367271585
 20
1348.267234461579
 10
721.8387810357446
 20
1350.128440650014
 10
721.6718783034532
 20
1352.057316538446
 10
721.4978969933522
 20
1354.073099993229
  0
LWPOLYLINE
  5
15A
330
1F
100
AcDbEntity
  8
ST6
100
AcDbPolyline
 90
       33
 70
     0
 43
0.0
 10
665.2787989500835
 20
1367.943120324046
 10
665.3966145897065
 20
1367.360587439286
 10
665.5945752081841
 20
1366.381782159093
 10
665.7924962901867
 20
1365.404171965943
 10
665.9905731335743
 20
1364.426792794331
 10
666.1874146663095
 20
1363.452577086704
 10
666.3852552267623
 20
1362.480360595241
 10
666.5824490571126
 20
1361.508405218033
 10
666.7781683323166
 20
1360.541791654862
 10
666.9746847626411
 20
1359.580157955262
 10
667.1715567668038
 20
1358.619782341127
 10
667.3673857259768
 20
1357.66461660129
 10
667.5630088082377
 20
1356.714447344677
 10
667.7585410904915
 20
1355.769707185084
 10
667.9540657106395
 20
1354.830989493264
 10
668.1497487549822
 20
1353.896503118323
 10
668.3441234126176
 20
1352.970482313579
 10
668.5395304764394
 20
1352.05127153384
 10
668.7340499819494
 20
1351.137528625726
 10
668.9282895738206
 20
1350.234065498498
 10
669.1225087923403
 20
1349.337669105417
 10
669.3166576988247
 20
1348.45055794793
 10
669.5107299752262
 20
1347.571758870771
 10
669.7046673260993
 20
1346.703516269256
 10
669.8985691294494
 20
1345.845376493244
 10
670.0924338033947
 20
1344.997342817038
 10
670.2861393178761
 20
1344.15993897759
 10
670.4797343892983
 20
1343.33492613461
 10
670.6732718867129
 20
1342.521076145558
 10
670.8664044569355
 20
1341.720814008284
 10
671.0606666262304
 20
1340.931871728962
 10
671.2537759276735
 20
1340.156463610938
 10
671.4484993123826
 20
1339.391478885357
  0
LWPOLYLINE
  5
15B
330
1F
100
AcDbEntity
  8
ST7
100
AcDbPolyline
 90
       33
 70
     0
 43
0.0
 10
673.3088526888543
 20
1370.437120324059
 10
673.4172065668076
 20
1369.747658387275
 10
673.5731591011393
 20
1368.748962350145
 10
673.7300876823763
 20
1367.752415882033
 10
673.8863434632985
 20
1366.754782819261
 10
674.0412485890713
 20
1365.760391850629
 10
674.1969519853021
 20
1364.770277946421
 10
674.3529606906399
 20
1363.781222756834
 10
674.5078148285797
 20
1362.79615062779
 10
674.663618181183
 20
1361.814389758521
 10
674.8184194013053
 20
1360.837643995465
 10
674.9740336358863
 20
1359.865055029362
 10
675.1299372865869
 20
1358.896653506415
 10
675.2846516181318
 20
1357.933432022959
 10
675.4401705551932
 20
1356.978386242828
 10
675.595845595064
 20
1356.027371415954
 10
675.7513185681548
 20
1355.084567361211
 10
675.9077495408412
 20
1354.147974276346
 10
676.0642823729146
 20
1353.218747527989
 10
676.2208033097427
 20
1352.297566982593
 10
676.3770998739531
 20
1351.385671104783
 10
676.5343746022836
 20
1350.482834531389
 10
676.6917824020197
 20
1349.587204075918
 10
676.8489112825159
 20
1348.703105501489
 10
677.0069714499275
 20
1347.82930117973
 10
677.1649966192537
 20
1346.966622896851
 10
677.3239431835695
 20
1346.114271945681
 10
677.4828069629945
 20
1345.27427971193
 10
677.6423986567331
 20
1344.446583660806
 10
677.8032917341845
 20
1343.629207100614
 10
677.9628531988471
 20
1342.826444452267
 10
678.1240940167499
 20
1342.038046097174
 10
678.2864318717397
 20
1341.257230892745
  0
LINE
  5
15C
330
1F
100
AcDbEntity
  8
0
100
AcDbLine
 10
754.8850194909553
 20
1379.717120324049
 30
0.0
 11
754.8850194909553
 21
1391.717120324049
 31
0.0
  0
LINE
  5
15D
330
1F
100
AcDbEntity
  8
0
100
AcDbLine
 10
763.8198109789177
 20
1391.717120324049
 30
0.0
 11
763.8198109789179
 21
1376.132120324048
 31
0.0
  0
LINE
  5
15E
330
1F
100
AcDbEntity
  8
0
100
AcDbLine
 10
778.8198109789178
 20
1391.717120324049
 30
0.0
 11
778.8198109789178
 21
1373.110120324046
 31
0.0
  0
LINE
  5
15F
330
1F
100
AcDbEntity
  8
0
100
AcDbLine
 10
719.2135904380461
 20
1379.717120324049
 30
0.0
 11
719.2135904380461
 21
1391.717120324049
 31
0.0
  0
LINE
  5
160
330
1F
100
AcDbEntity
  8
0
100
AcDbLine
 10
710.2787989500834
 20
1391.717120324049
 30
0.0
 11
710.2787989500834
 21
1376.132120324048
 31
0.0
  0
LINE
  5
161
330
1F
100
AcDbEntity
  8
0
100
AcDbLine
 10
695.2787989500834
 20
1391.717120324049
 30
0.0
 11
695.2787989500834
 21
1373.110120324046
 31
0.0
  0
LINE
  5
162
330
1F
100
AcDbEntity
  8
0
100
AcDbLine
 10
680.2787989500834
 20
1367.943120324046
 30
0.0
 11
680.2787989500834
 21
1391.717120324049
 31
0.0
  0
LINE
  5
163
330
1F
100
AcDbEntity
  8
0
100
AcDbLine
 10
773.1421554867693
 20
1376.132120324047
 30
0.0
 11
700.9564544422321
 21
1376.132120324047
 31
0.0
  0
LINE
  5
164
330
1F
100
AcDbEntity
  8
0
100
AcDbLine
 10
754.8850194909555
 20
1379.717120324049
 30
0.0
 11
719.2135904380461
 21
1379.717120324049
 31
0.0
  0
LWPOLYLINE
  5
165
330
1F
100
AcDbEntity
  8
ST8
100
AcDbPolyline
 90
       33
 70
     0
 43
0.0
 10
685.3691669551669
 20
1373.110120324046
 10
685.4646010870965
 20
1372.397642606345
 10
685.5956989268295
 20
1371.418912169329
 10
685.7256454731754
 20
1370.443313483018
 10
685.8565917424463
 20
1369.468713387365
 10
685.9866537148072
 20
1368.495249547748
 10
686.1165637509834
 20
1367.524921508413
 10
686.2463194623288
 20
1366.558740519413
 10
686.3772087969464
 20
1365.59455572632
 10
686.5071969789585
 20
1364.632643179103
 10
686.6370472016428
 20
1363.676745770667
 10
686.7667364813865
 20
1362.725025979405
 10
686.8975425250109
 20
1361.778429572188
 10
687.0273453507447
 20
1360.835861360795
 10
687.1579591676982
 20
1359.90062654899
 10
687.2887121383349
 20
1358.970384040419
 10
687.4192897375182
 20
1358.047369866104
 10
687.5509871291547
 20
1357.130476662271
 10
687.6816776908101
 20
1356.22063092013
 10
687.8130231506297
 20
1355.320118487325
 10
687.9456223005811
 20
1354.425821964761
 10
688.0772103787635
 20
1353.540593074839
 10
688.2096186732415
 20
1352.664508118935
 10
688.342153140477
 20
1351.796556833536
 10
688.474443784921
 20
1350.939154310934
 10
688.6078872914167
 20
1350.091688460001
 10
688.7402811132505
 20
1349.25352606917
 10
688.8732439215909
 20
1348.429950465294
 10
689.0073528317278
 20
1347.615363011126
 10
689.1417921733616
 20
1346.810718655268
 10
689.2747625143911
 20
1346.019842820961
 10
689.4096434545767
 20
1345.242293871632
 10
689.5444092153327
 20
1344.471633373091
  0
LWPOLYLINE
  5
166
330
1F
100
AcDbEntity
  8
ST9
100
AcDbPolyline
 90
       33
 70
     0
 43
0.0
 10
700.9564544422321
 20
1376.132120324047
 10
701.0434400475057
 20
1375.46930438954
 10
701.163403850913
 20
1374.54758249988
 10
701.2843675719532
 20
1373.627858340167
 10
701.4045902119406
 20
1372.706151433461
 10
701.523518142523
 20
1371.789706791788
 10
701.6434455197227
 20
1370.874261146117
 10
701.7624936393643
 20
1369.960891959166
 10
701.8813838372145
 20
1369.050732545244
 10
702.0003959515689
 20
1368.143640211779
 10
702.1183889293352
 20
1367.239694009121
 10
702.2362398195229
 20
1366.341830023612
 10
702.3542326085433
 20
1365.445884778068
 10
702.4711868276035
 20
1364.555233417438
 10
702.5881410868187
 20
1363.669579796723
 10
702.7040747254859
 20
1362.789083799532
 10
702.8198399012321
 20
1361.915855103112
 10
702.9357508849393
 20
1361.047521957853
 10
703.0506394162553
 20
1360.185358457587
 10
703.1655060519078
 20
1359.330351152165
 10
703.279348280271
 20
1358.482526135641
 10
703.3931878618764
 20
1357.642709573076
 10
703.5060229598926
 20
1356.809926637269
 10
703.6188106743879
 20
1355.985478388354
 10
703.7307343718518
 20
1355.1690349877
 10
703.8414890656506
 20
1354.36282064007
 10
703.9522135321358
 20
1353.565803984948
 10
704.0619288642365
 20
1352.778845830203
 10
704.1716104105782
 20
1352.001103956183
 10
704.2804361188814
 20
1351.233333592172
 10
704.38804465431
 20
1350.477084718265
 10
704.4958295789947
 20
1349.731572322606
 10
704.6019344525968
 20
1348.993843153977
  0
LWPOLYLINE
  5
167
330
1F
100
AcDbEntity
  8
ST10
100
AcDbPolyline
 90
       33
 70
     0
 43
0.0
 10
721.4980542432617
 20
1354.071268236322
 10
721.4389370730827
 20
1354.763640517989
 10
721.3779224412974
 20
1355.466809143115
 10
721.3168914810016
 20
1356.180171023105
 10
721.2538676048152
 20
1356.903445030644
 10
721.1908382189887
 20
1357.637787399367
 10
721.1256708532282
 20
1358.38270051868
 10
721.0597363819301
 20
1359.133953888583
 10
720.9936895914363
 20
1359.895493397107
 10
720.9256207852245
 20
1360.666272526289
 10
720.8575561820301
 20
1361.444010712801
 10
720.7874896072655
 20
1362.23075825236
 10
720.7175165231476
 20
1363.023453333297
 10
720.6465421561877
 20
1363.823164510406
 10
720.5754516514264
 20
1364.631193205476
 10
720.5023493471854
 20
1365.445332566556
 10
720.4293656549745
 20
1366.264149606726
 10
720.3793406001371
 20
1366.822429218215
 10
720.281427455353
 20
1367.917457858055
 10
720.2073346213516
 20
1368.753505377048
 10
720.1313037577797
 20
1369.593846500342
 10
720.0562751304333
 20
1370.43716827193
 10
719.9792447409038
 20
1371.285502951679
 10
719.9033010276259
 20
1372.135872688128
 10
719.8261488446446
 20
1372.991560535992
 10
719.7480913664394
 20
1373.849192059026
 10
719.6701387178582
 20
1374.707670586632
 10
719.592072769384
 20
1375.57039940211
 10
719.5131011464293
 20
1376.433089409537
 10
719.4350265516297
 20
1377.298916647021
 10
719.3549402965954
 20
1378.165850357492
 10
719.2760536738949
 20
1379.031606077204
 10
719.2135904380461
 20
1379.717120324049
  0
LWPOLYLINE
  5
168
330
1F
100
AcDbEntity
  8
ST9
100
AcDbPolyline
 90
       33
 70
     0
 43
0.0
 10
773.1421554867693
 20
1376.132120324047
 10
773.0551698814957
 20
1375.46930438954
 10
772.9352060780882
 20
1374.54758249988
 10
772.814242357048
 20
1373.627858340167
 10
772.6940197170606
 20
1372.706151433461
 10
772.5750917864784
 20
1371.789706791788
 10
772.4551644092787
 20
1370.874261146117
 10
772.3361162896371
 20
1369.960891959166
 10
772.2172260917869
 20
1369.050732545244
 10
772.0982139774323
 20
1368.143640211779
 10
771.9802209996662
 20
1367.239694009121
 10
771.8623701094784
 20
1366.341830023612
 10
771.7443773204581
 20
1365.445884778068
 10
771.6274231013978
 20
1364.555233417438
 10
771.5104688421825
 20
1363.669579796723
 10
771.3945352035154
 20
1362.789083799532
 10
771.2787700277693
 20
1361.915855103112
 10
771.162859044062
 20
1361.047521957853
 10
771.0479705127458
 20
1360.185358457587
 10
770.9331038770935
 20
1359.330351152165
 10
770.8192616487304
 20
1358.482526135641
 10
770.705422067125
 20
1357.642709573076
 10
770.5925869691086
 20
1356.809926637269
 10
770.4797992546134
 20
1355.985478388354
 10
770.3678755571493
 20
1355.1690349877
 10
770.2571208633505
 20
1354.36282064007
 10
770.1463963968653
 20
1353.565803984948
 10
770.0366810647649
 20
1352.778845830203
 10
769.9269995184232
 20
1352.001103956183
 10
769.81817381012
 20
1351.233333592172
 10
769.7105652746913
 20
1350.477084718265
 10
769.6027803500067
 20
1349.731572322606
 10
769.4966754764045
 20
1348.993843153977
  0
LWPOLYLINE
  5
169
330
1F
100
AcDbEntity
  8
ST10
100
AcDbPolyline
 90
       33
 70
     0
 43
0.0
 10
752.6005556857397
 20
1354.071268236322
 10
752.6596728559186
 20
1354.763640517989
 10
752.720687487704
 20
1355.466809143115
 10
752.7817184479998
 20
1356.180171023105
 10
752.8447423241861
 20
1356.903445030644
 10
752.9077717100126
 20
1357.637787399367
 10
752.9729390757731
 20
1358.38270051868
 10
753.0388735470713
 20
1359.133953888583
 10
753.104920337565
 20
1359.895493397107
 10
753.1729891437771
 20
1360.666272526289
 10
753.2410537469713
 20
1361.444010712801
 10
753.3111203217359
 20
1362.23075825236
 10
753.381093405854
 20
1363.023453333297
 10
753.4520677728137
 20
1363.823164510406
 10
753.523158277575
 20
1364.631193205476
 10
753.5962605818163
 20
1365.445332566556
 10
753.6692442740267
 20
1366.264149606726
 10
753.7192693288643
 20
1366.822429218215
 10
753.8171824736484
 20
1367.917457858055
 10
753.8912753076499
 20
1368.753505377048
 10
753.9673061712219
 20
1369.593846500342
 10
754.0423347985681
 20
1370.43716827193
 10
754.1193651880978
 20
1371.285502951679
 10
754.1953089013754
 20
1372.135872688128
 10
754.2724610843568
 20
1372.991560535992
 10
754.350518562562
 20
1373.849192059026
 10
754.4284712111432
 20
1374.707670586632
 10
754.5065371596174
 20
1375.57039940211
 10
754.5855087825723
 20
1376.433089409537
 10
754.6635833773718
 20
1377.298916647021
 10
754.743669632406
 20
1378.165850357492
 10
754.8225562551065
 20
1379.031606077204
 10
754.8850194909555
 20
1379.717120324049
  0
LWPOLYLINE
  5
16A
330
1F
100
AcDbEntity
  8
EDGES
100
AcDbPolyline
 90
       33
 70
     0
 43
0.0
 10
737.0493049645008
 20
1383.795120324055
 10
737.0493049645008
 20
1382.966120324059
 10
737.0493049645008
 20
1382.138120324047
 10
737.0493049645008
 20
1381.310120324049
 10
737.0493049645008
 20
1380.483120324047
 10
737.0493049645008
 20
1379.658120324056
 10
737.0493049645008
 20
1378.834120324047
 10
737.0493049645008
 20
1378.013120324059
 10
737.0493049645008
 20
1377.194120324052
 10
737.0493049645008
 20
1376.378120324052
 10
737.0493049645008
 20
1375.565120324058
 10
737.0493049645008
 20
1374.756120324055
 10
737.0493049645008
 20
1373.951120324055
 10
737.0493049645008
 20
1373.151120324056
 10
737.0493049645008
 20
1372.355120324048
 10
737.0493049645008
 20
1371.565120324053
 10
737.0493049645008
 20
1370.78012032406
 10
737.0493049645008
 20
1370.001120324051
 10
737.0493049645008
 20
1369.229120324053
 10
737.0493049645008
 20
1368.463120324055
 10
737.0493049645008
 20
1367.704120324052
 10
737.0493049645008
 20
1366.953120324059
 10
737.0493049645008
 20
1366.210120324059
 10
737.0493049645008
 20
1365.474120324056
 10
737.0493049645008
 20
1364.748120324055
 10
737.0493049645008
 20
1364.030120324049
 10
737.0493049645008
 20
1363.321120324049
 10
737.0493049645008
 20
1362.622120324051
 10
737.0493049645008
 20
1361.933120324057
 10
737.0493049645008
 20
1361.255120324049
 10
737.0493049645008
 20
1360.587120324059
 10
737.0493049645008
 20
1359.930120324055
 10
737.0493049645008
 20
1359.285120324049
  0
LINE
  5
16B
330
1F
100
AcDbEntity
  8
0
100
AcDbLine
 10
680.2787989500834
 20
1391.717120324049
 30
0.0
 11
737.0493049645006
 21
1391.717120324049
 31
0.0
  0
LINE
  5
16C
330
1F
100
AcDbEntity
  8
0
100
AcDbLine
 10
793.8198109789177
 20
1367.943120324046
 30
0.0
 11
793.8198109789177
 21
1391.717120324049
 31
0.0
  0
LWPOLYLINE
  5
16D
330
1F
100
AcDbEntity
  8
ST6
100
AcDbPolyline
 90
       33
 70
     0
 43
0.0
 10
808.8198109789177
 20
1367.943120324046
 10
808.7019953392948
 20
1367.360587439286
 10
808.5040347208174
 20
1366.381782159093
 10
808.3061136388144
 20
1365.404171965943
 10
808.1080367954271
 20
1364.426792794331
 10
807.9111952626917
 20
1363.452577086704
 10
807.7133547022388
 20
1362.480360595241
 10
807.5161608718888
 20
1361.508405218033
 10
807.3204415966847
 20
1360.541791654862
 10
807.12392516636
 20
1359.580157955262
 10
806.9270531621974
 20
1358.619782341127
 10
806.7312242030245
 20
1357.66461660129
 10
806.5356011207637
 20
1356.714447344677
 10
806.3400688385099
 20
1355.769707185084
 10
806.1445442183616
 20
1354.830989493264
 10
805.9488611740189
 20
1353.896503118323
 10
805.7544865163839
 20
1352.970482313579
 10
805.5590794525619
 20
1352.05127153384
 10
805.3645599470518
 20
1351.137528625726
 10
805.1703203551808
 20
1350.234065498498
 10
804.9761011366609
 20
1349.337669105417
 10
804.7819522301768
 20
1348.45055794793
 10
804.5878799537751
 20
1347.571758870771
 10
804.393942602902
 20
1346.703516269256
 10
804.2000407995519
 20
1345.845376493244
 10
804.0061761256067
 20
1344.997342817038
 10
803.8124706111252
 20
1344.15993897759
 10
803.6188755397031
 20
1343.33492613461
 10
803.4253380422883
 20
1342.521076145558
 10
803.232205472066
 20
1341.720814008284
 10
803.0379433027707
 20
1340.931871728962
 10
802.8448340013278
 20
1340.156463610938
 10
802.6501106166186
 20
1339.391478885357
  0
LWPOLYLINE
  5
16E
330
1F
100
AcDbEntity
  8
ST7
100
AcDbPolyline
 90
       33
 70
     0
 43
0.0
 10
800.7897572401471
 20
1370.437120324059
 10
800.6814033621937
 20
1369.747658387275
 10
800.5254508278619
 20
1368.748962350145
 10
800.3685222466252
 20
1367.752415882033
 10
800.2122664657029
 20
1366.754782819261
 10
800.0573613399298
 20
1365.760391850629
 10
799.901657943699
 20
1364.770277946421
 10
799.7456492383614
 20
1363.781222756834
 10
799.5907951004217
 20
1362.79615062779
 10
799.4349917478182
 20
1361.814389758521
 10
799.280190527696
 20
1360.837643995465
 10
799.1245762931151
 20
1359.865055029362
 10
798.9686726424142
 20
1358.896653506415
 10
798.8139583108695
 20
1357.933432022959
 10
798.6584393738082
 20
1356.978386242828
 10
798.5027643339374
 20
1356.027371415954
 10
798.3472913608466
 20
1355.084567361211
 10
798.1908603881602
 20
1354.147974276346
 10
798.0343275560865
 20
1353.218747527989
 10
797.8778066192587
 20
1352.297566982593
 10
797.7215100550481
 20
1351.385671104783
 10
797.5642353267176
 20
1350.482834531389
 10
797.4068275269814
 20
1349.587204075918
 10
797.2496986464853
 20
1348.703105501489
 10
797.0916384790739
 20
1347.82930117973
 10
796.9336133097477
 20
1346.966622896851
 10
796.7746667454319
 20
1346.114271945681
 10
796.6158029660069
 20
1345.27427971193
 10
796.4562112722683
 20
1344.446583660806
 10
796.2953181948169
 20
1343.629207100614
 10
796.1357567301541
 20
1342.826444452267
 10
795.9745159122515
 20
1342.038046097174
 10
795.8121780572617
 20
1341.257230892745
  0
LWPOLYLINE
  5
16F
330
1F
100
AcDbEntity
  8
ST8
100
AcDbPolyline
 90
       33
 70
     0
 43
0.0
 10
788.7294429738345
 20
1373.110120324046
 10
788.6340088419046
 20
1372.397642606345
 10
788.5029110021719
 20
1371.418912169329
 10
788.3729644558258
 20
1370.443313483018
 10
788.2420181865548
 20
1369.468713387365
 10
788.1119562141939
 20
1368.495249547748
 10
787.9820461780179
 20
1367.524921508413
 10
787.8522904666726
 20
1366.558740519413
 10
787.721401132055
 20
1365.59455572632
 10
787.5914129500429
 20
1364.632643179103
 10
787.4615627273583
 20
1363.676745770667
 10
787.3318734476149
 20
1362.725025979405
 10
787.2010674039902
 20
1361.778429572188
 10
787.0712645782567
 20
1360.835861360795
 10
786.9406507613032
 20
1359.90062654899
 10
786.8098977906663
 20
1358.970384040419
 10
786.6793201914829
 20
1358.047369866104
 10
786.5476227998467
 20
1357.130476662271
 10
786.4169322381912
 20
1356.22063092013
 10
786.2855867783714
 20
1355.320118487325
 10
786.15298762842
 20
1354.425821964761
 10
786.0213995502379
 20
1353.540593074839
 10
785.8889912557599
 20
1352.664508118935
 10
785.7564567885244
 20
1351.796556833536
 10
785.6241661440801
 20
1350.939154310934
 10
785.4907226375846
 20
1350.091688460001
 10
785.3583288157508
 20
1349.25352606917
 10
785.2253660074104
 20
1348.429950465294
 10
785.0912570972734
 20
1347.615363011126
 10
784.9568177556398
 20
1346.810718655268
 10
784.8238474146103
 20
1346.019842820961
 10
784.6889664744247
 20
1345.242293871632
 10
784.5542007136686
 20
1344.471633373091
  0
LWPOLYLINE
  5
170
330
1F
100
AcDbEntity
  8
ST8
100
AcDbPolyline
 90
       33
 70
     0
 43
0.0
 10
1417.511776470165
 20
1383.398465157899
 10
1414.354379620436
 20
1383.39646933183
 10
1411.192826571164
 20
1383.415347241295
 10
1408.049096105977
 20
1383.477648285427
 10
1404.950456197955
 20
1383.605528662582
 10
1401.922242688834
 20
1383.821550349333
 10
1398.994069712286
 20
1384.148519962673
 10
1396.19258411161
 20
1384.605179420577
 10
1393.551050634074
 20
1385.210234014321
 10
1391.098247697705
 20
1385.981355578429
 10
1388.861669104625
 20
1386.930569089799
 10
1386.85799420172
 20
1388.074751510687
 10
1385.068294039111
 20
1389.426029148569
 10
1383.46390274795
 20
1390.972474027387
 10
1382.031879787837
 20
1392.702072091076
 10
1380.748255975101
 20
1394.590355167291
 10
1379.604257913649
 20
1396.603866956633
 10
1378.586217146836
 20
1398.715042066851
 10
1377.678829177723
 20
1400.892773192721
 10
1376.867805694454
 20
1403.103950718212
 10
1376.135482107533
 20
1405.318520710759
 10
1375.462496082999
 20
1407.506218682061
 10
1374.832116281118
 20
1409.628662802248
 10
1374.239008423132
 20
1411.674239150076
 10
1373.679571332459
 20
1413.6590505303
 10
1373.151742886986
 20
1415.60102347877
 10
1372.651289303672
 20
1417.520747599845
 10
1372.174842755476
 20
1419.439384010604
 10
1371.717358548386
 20
1421.376034217854
 10
1371.276712523132
 20
1423.352025362438
 10
1370.848560219165
 20
1425.386984811848
 10
1370.428936213501
 20
1427.50192938752
 10
1370.012954141102
 20
1429.726139750576
  0
LWPOLYLINE
  5
171
330
1F
100
AcDbEntity
  8
ST8
100
AcDbPolyline
 90
       33
 70
     0
 43
0.0
 10
1417.51430491466
 20
1383.398465157899
 10
1420.671701764389
 20
1383.39646933183
 10
1423.83325481366
 20
1383.415347241295
 10
1426.976985278848
 20
1383.477648285427
 10
1430.07562518687
 20
1383.605528662582
 10
1433.10383869599
 20
1383.821550349333
 10
1436.032011672538
 20
1384.148519962673
 10
1438.833497273214
 20
1384.605179420577
 10
1441.47503075075
 20
1385.210234014321
 10
1443.927833687119
 20
1385.981355578429
 10
1446.1644122802
 20
1386.930569089799
 10
1448.168087183104
 20
1388.074751510687
 10
1449.957787345714
 20
1389.426029148569
 10
1451.562178636874
 20
1390.972474027387
 10
1452.994201596988
 20
1392.702072091076
 10
1454.277825409723
 20
1394.590355167291
 10
1455.421823471176
 20
1396.603866956633
 10
1456.439864237988
 20
1398.715042066851
 10
1457.347252207102
 20
1400.892773192721
 10
1458.158275690371
 20
1403.103950718212
 10
1458.890599277292
 20
1405.318520710759
 10
1459.563585301826
 20
1407.506218682061
 10
1460.193965103707
 20
1409.628662802248
 10
1460.787072961692
 20
1411.674239150076
 10
1461.346510052365
 20
1413.6590505303
 10
1461.874338497838
 20
1415.60102347877
 10
1462.374792081152
 20
1417.520747599845
 10
1462.851238629348
 20
1419.439384010604
 10
1463.308722836438
 20
1421.376034217854
 10
1463.749368861692
 20
1423.352025362438
 10
1464.17752116566
 20
1425.386984811848
 10
1464.597145171323
 20
1427.50192938752
 10
1465.013127243723
 20
1429.726139750576
  0
LINE
  5
172
330
1F
100
AcDbEntity
  8
0
100
AcDbLine
 10
1417.513040692412
 20
1381.398465557464
 30
0.0
 11
1417.513040692412
 21
1444.51346555746
 31
0.0
  0
LINE
  5
173
330
1F
100
AcDbEntity
  8
0
100
AcDbLine
 10
1616.859068322811
 20
1120.505850548515
 30
0.0
 11
1731.36528665157
 21
1120.505850548515
 31
0.0
  0
LINE
  5
174
330
1F
100
AcDbEntity
  8
0
100
AcDbLine
 10
1745.021279566271
 20
1387.994260928721
 30
0.0
 11
1594.012435174319
 21
1387.994260928721
 31
0.0
  0
LWPOLYLINE
  5
175
330
1F
100
AcDbEntity
  8
ST1
100
AcDbPolyline
 90
       33
 70
     0
 43
0.0
 10
1616.859068322811
 20
1120.505850548515
 10
1617.526185251408
 20
1119.911668168769
 10
1618.515718659981
 20
1119.037910169026
 10
1619.503866823301
 20
1118.182234698866
 10
1620.493488083227
 20
1117.351381416667
 10
1621.48670306689
 20
1116.549466595234
 10
1622.484925593348
 20
1115.784768801701
 10
1623.492212163201
 20
1115.061345270855
 10
1624.509916139944
 20
1114.383503584252
 10
1625.538591732868
 20
1113.757353223346
 10
1626.581641486369
 20
1113.188333154448
 10
1627.64482944345
 20
1112.679175097466
 10
1628.738424624611
 20
1112.228387117276
 10
1629.882200233511
 20
1111.829075407911
 10
1631.091745288303
 20
1111.477678526555
 10
1632.385837659549
 20
1111.170051077019
 10
1633.780877030077
 20
1110.901264658286
 10
1635.287914955149
 20
1110.668897770095
 10
1636.92147766865
 20
1110.470977937776
 10
1638.695762199337
 20
1110.303482361891
 10
1640.622759163835
 20
1110.163247977188
 10
1642.714928646246
 20
1110.045920847873
 10
1644.981910873367
 20
1109.948905887942
 10
1647.418752919719
 20
1109.868504989459
 10
1650.00507493465
 20
1109.804866154803
 10
1652.725822421983
 20
1109.755072093906
 10
1655.563691476168
 20
1109.717193968135
 10
1658.501293564138
 20
1109.690261792807
 10
1661.521683387774
 20
1109.672295164631
 10
1664.609644644573
 20
1109.661309532733
 10
1667.748717216043
 20
1109.655315122986
 10
1670.920807606944
 20
1109.653316326274
 10
1674.11217748719
 20
1109.653316326274
  0
LWPOLYLINE
  5
176
330
1F
100
AcDbEntity
  8
ST2
100
AcDbPolyline
 90
       34
 70
     0
 43
0.0
 10
1671.187383340732
 20
1215.820781604073
 10
1667.306375906577
 20
1215.897742091441
 10
1663.463628036572
 20
1215.981605645893
 10
1659.678791151149
 20
1216.080340521155
 10
1655.974541319517
 20
1216.198868547509
 10
1652.372635821085
 20
1216.346047457987
 10
1650.869021795243
 20
1216.424453733923
 10
1648.894964875676
 20
1216.527672396378
 10
1645.56324448501
 20
1216.751437272551
 10
1642.399983624195
 20
1217.022855911145
 10
1639.42665403288
 20
1217.348094541258
 10
1636.668333489567
 20
1217.732794822347
 10
1634.145482313148
 20
1218.182162555886
 10
1631.860197559619
 20
1218.698008673016
 10
1629.790520608323
 20
1219.275992190286
 10
1627.917555799801
 20
1219.909467143218
 10
1626.219606378002
 20
1220.593911871385
 10
1624.676369941623
 20
1221.325361102437
 10
1623.266757154964
 20
1222.101858502755
 10
1621.96873075494
 20
1222.918824222625
 10
1620.761800305918
 20
1223.77692005963
 10
1619.626762978892
 20
1224.6734962774
 10
1618.543466788322
 20
1225.608941019432
 10
1617.500941866035
 20
1226.575160366415
 10
1616.496909124724
 20
1227.570603473989
 10
1615.527008264671
 20
1228.599633000057
 10
1614.586410781848
 20
1229.669836620314
 10
1613.669518075108
 20
1230.790907307584
 10
1612.770522620243
 20
1231.970121558467
 10
1611.885662674661
 20
1233.215054382342
 10
1611.009649595685
 20
1234.541067608085
 10
1610.137500223324
 20
1235.960957590704
 10
1609.263987537577
 20
1237.489604790788
 10
1608.370981842851
 20
1239.166328824018
  0
LWPOLYLINE
  5
177
330
1F
100
AcDbEntity
  8
ST3
100
AcDbPolyline
 90
       34
 70
     0
 43
0.0
 10
1669.560964287629
 20
1332.707774514527
 10
1665.211920479894
 20
1332.803709304404
 10
1660.904023939161
 20
1332.911481559763
 10
1658.120805554346
 20
1332.998238994195
 10
1656.669129827553
 20
1333.045867452756
 10
1652.528824236778
 20
1333.221902545141
 10
1648.510047745472
 20
1333.445223046637
 10
1644.639447077405
 20
1333.727351228314
 10
1640.943845964219
 20
1334.079548130996
 10
1637.451286092234
 20
1334.51268055606
 10
1634.186965853306
 20
1335.035908919708
 10
1631.180295968737
 20
1335.658145397278
 10
1628.456537375998
 20
1336.386714918924
 10
1626.014086390604
 20
1337.222040741163
 10
1623.822246482471
 20
1338.155079121308
 10
1621.854793291631
 20
1339.172985650811
 10
1620.087477948916
 20
1340.26321870388
 10
1618.495202650549
 20
1341.417851084028
 10
1617.051982911329
 20
1342.628774950528
 10
1615.736148066421
 20
1343.88650312847
 10
1614.525868073042
 20
1345.183636288296
 10
1613.399409375206
 20
1346.513258155195
 10
1612.336177570204
 20
1347.865233202423
 10
1611.323056337876
 20
1349.220927608437
 10
1610.35714732906
 20
1350.574368659101
 10
1609.433467480374
 20
1351.933636478547
 10
1608.546951606673
 20
1353.307590433909
 10
1607.691209427833
 20
1354.70957166797
 10
1606.860232923858
 20
1356.152131346602
 10
1606.046936023424
 20
1357.648364161045
 10
1605.244540549409
 20
1359.208306759337
 10
1604.448070123337
 20
1360.845224506186
 10
1603.651351658978
 20
1362.569977885382
 10
1602.842879771755
 20
1364.409845893468
  0
LINE
  5
178
330
1F
100
AcDbEntity
  8
0
100
AcDbLine
 10
1741.929964817858
 20
1144.713316326271
 30
0.0
 11
1606.294390156522
 21
1144.713316326271
 31
0.0
  0
LWPOLYLINE
  5
179
330
1F
100
AcDbEntity
  8
GRID
100
AcDbPolyline
 90
        2
 70
     0
 43
0.0
 10
1594.11217748715
 20
1105.213316326281
 10
1754.112177487175
 20
1105.213316326281
  0
LINE
  5
17A
330
1F
100
AcDbEntity
  8
0
100
AcDbLine
 10
1743.543780310219
 20
1261.685174718166
 30
0.0
 11
1598.751681848852
 21
1261.685174718166
 31
0.0
  0
LWPOLYLINE
  5
17B
330
1F
100
AcDbEntity
  8
GRID
100
AcDbPolyline
 90
        2
 70
     0
 43
0.0
 10
1591.147731079495
 20
1221.348174718172
 10
1751.14773107952
 20
1221.348174718172
  0
LWPOLYLINE
  5
17C
330
1F
100
AcDbEntity
  8
GRID
100
AcDbPolyline
 90
        2
 70
     0
 43
0.0
 10
1589.516857370254
 20
1346.228260928725
 10
1749.516857370279
 20
1346.228260928725
  0
LWPOLYLINE
  5
17D
330
1F
100
AcDbEntity
  8
ST1
100
AcDbPolyline
 90
       32
 70
     0
 43
0.0
 10
1606.294390156522
 20
1144.713316326271
 10
1606.63917940143
 20
1143.923381312672
 10
1606.986417943187
 20
1143.127834797629
 10
1607.332417943224
 20
1142.333834797629
 10
1607.678994723276
 20
1141.539804422532
 10
1608.025994723321
 20
1140.745804422507
 10
1608.372994723269
 20
1139.950804422575
 10
1608.720233517423
 20
1139.156258017586
 10
1609.066233517437
 20
1138.362258017505
 10
1609.412994723298
 20
1137.568804422487
 10
1609.760417943223
 20
1136.772834797653
 10
1610.106233517426
 20
1135.979258017496
 10
1610.452809849828
 20
1135.18622744705
 10
1610.800233517413
 20
1134.391258017551
 10
1611.146656159019
 20
1133.596288140525
 10
1611.492233517425
 20
1132.80325801756
 10
1611.83923351742
 20
1132.009258017518
 10
1612.185233517364
 20
1131.2152580176
 10
1612.532233517405
 20
1130.421258017584
 10
1612.878656159023
 20
1129.626288140529
 10
1613.224656159107
 20
1128.83228814042
 10
1613.570233517415
 20
1128.039258017551
 10
1613.917233517373
 20
1127.245258017594
 10
1614.263656159099
 20
1126.450288140423
 10
1614.609471705025
 20
1125.656711425157
 10
1614.955048615565
 20
1124.86468110702
 10
1615.302233517403
 20
1124.070258017589
 10
1615.648048701074
 20
1123.276682133626
 10
1615.995048701102
 20
1122.483682133637
 10
1616.341048701114
 20
1121.689682133562
 10
1616.68743912407
 20
1120.898075201509
 10
1616.859068322811
 20
1120.505850548515
  0
LWPOLYLINE
  5
17E
330
1F
100
AcDbEntity
  8
ST2
100
AcDbPolyline
 90
       33
 70
     0
 43
0.0
 10
1598.751681848852
 20
1261.685174718166
 10
1598.774486599163
 20
1261.627947703234
 10
1599.092326726897
 20
1260.831348389377
 10
1599.410568167016
 20
1260.033743270707
 10
1599.727087253771
 20
1259.23895086358
 10
1600.044604039799
 20
1258.44615737894
 10
1600.360955821344
 20
1257.654778947504
 10
1600.678139880943
 20
1256.866805969228
 10
1600.994890637373
 20
1256.079425539984
 10
1601.310898024262
 20
1255.295886719493
 10
1601.627142415678
 20
1254.515750712897
 10
1601.94237754947
 20
1253.738636253315
 10
1602.257014920039
 20
1252.966978145121
 10
1602.572056936699
 20
1252.198315503201
 10
1602.885734457797
 20
1251.434535634359
 10
1603.19896237784
 20
1250.677816754515
 10
1603.512593375425
 20
1249.924106706358
 10
1603.824834202081
 20
1249.177314155978
 10
1604.136851561787
 20
1248.437018191083
 10
1604.447440638652
 20
1247.704702731908
 10
1604.757970348887
 20
1246.980464110602
 10
1605.067231525846
 20
1246.263810806327
 10
1605.376002519088
 20
1245.557200264117
 10
1605.684155310791
 20
1244.858654546603
 10
1605.990282215269
 20
1244.171350270655
 10
1606.29581265394
 20
1243.496226559423
 10
1606.60043997231
 20
1242.831764382815
 10
1606.903107096733
 20
1242.181226602326
 10
1607.205532312141
 20
1241.54299156984
 10
1607.506987995724
 20
1240.916513634622
 10
1607.806321756712
 20
1240.305129318812
 10
1608.103998244433
 20
1239.709776343427
 10
1608.404353595624
 20
1239.120921773271
  0
LWPOLYLINE
  5
17F
330
1F
100
AcDbEntity
  8
ST3
100
AcDbPolyline
 90
       33
 70
     0
 43
0.0
 10
1594.012435174319
 20
1387.994260928721
 10
1594.068479166218
 20
1387.835917458457
 10
1594.359711246838
 20
1387.011260295319
 10
1594.650584216545
 20
1386.187619996222
 10
1594.941329606552
 20
1385.365340078796
 10
1595.231817625104
 20
1384.544786294444
 10
1595.522666322822
 20
1383.726212124598
 10
1595.812383365618
 20
1382.909010259065
 10
1596.101603015354
 20
1382.097200621559
 10
1596.391314857553
 20
1381.286007463409
 10
1596.679759245492
 20
1380.47856279271
 10
1596.967691343559
 20
1379.676537398307
 10
1597.255849459944
 20
1378.877870785091
 10
1597.54299608299
 20
1378.084229424211
 10
1597.829990607132
 20
1377.29499448285
 10
1598.115828410225
 20
1376.512177363626
 10
1598.401645282938
 20
1375.73439695379
 10
1598.686294773798
 20
1374.963056550276
 10
1598.970768306644
 20
1374.198160932293
 10
1599.254463005225
 20
1373.43965089598
 10
1599.536560647002
 20
1372.689708221597
 10
1599.818611628385
 20
1371.94783468963
 10
1600.100035574722
 20
1371.211955819275
 10
1600.380087044793
 20
1370.485013705543
 10
1600.658472563176
 20
1369.768740645712
 10
1600.936774506492
 20
1369.061596206198
 10
1601.214262286478
 20
1368.36292161723
 10
1601.490945914948
 20
1367.67369179013
 10
1601.764875910812
 20
1366.99628367757
 10
1602.037716291018
 20
1366.332404918468
 10
1602.311383770459
 20
1365.67639334316
 10
1602.582995010233
 20
1365.031440108455
 10
1602.854888598765
 20
1364.395367881245
  0
LWPOLYLINE
  5
180
330
1F
100
AcDbEntity
  8
EDGES
100
AcDbPolyline
 90
       33
 70
     0
 43
0.0
 10
1674.11217748719
 20
1169.713316326276
 10
1674.11217748719
 20
1168.88431632628
 10
1674.11217748719
 20
1168.056316326268
 10
1674.11217748719
 20
1167.228316326269
 10
1674.11217748719
 20
1166.401316326268
 10
1674.11217748719
 20
1165.576316326276
 10
1674.11217748719
 20
1164.752316326268
 10
1674.11217748719
 20
1163.93131632628
 10
1674.11217748719
 20
1163.112316326273
 10
1674.11217748719
 20
1162.296316326272
 10
1674.11217748719
 20
1161.483316326279
 10
1674.11217748719
 20
1160.674316326275
 10
1674.11217748719
 20
1159.869316326275
 10
1674.11217748719
 20
1159.069316326277
 10
1674.11217748719
 20
1158.273316326269
 10
1674.11217748719
 20
1157.483316326274
 10
1674.11217748719
 20
1156.69831632628
 10
1674.11217748719
 20
1155.919316326272
 10
1674.11217748719
 20
1155.147316326274
 10
1674.11217748719
 20
1154.381316326275
 10
1674.11217748719
 20
1153.622316326273
 10
1674.11217748719
 20
1152.871316326279
 10
1674.11217748719
 20
1152.128316326279
 10
1674.11217748719
 20
1151.392316326276
 10
1674.11217748719
 20
1150.666316326276
 10
1674.11217748719
 20
1149.94831632627
 10
1674.11217748719
 20
1149.239316326269
 10
1674.11217748719
 20
1148.540316326272
 10
1674.11217748719
 20
1147.851316326278
 10
1674.11217748719
 20
1147.17331632627
 10
1674.11217748719
 20
1146.505316326279
 10
1674.11217748719
 20
1145.848316326276
 10
1674.11217748719
 20
1145.20331632627
  0
LWPOLYLINE
  5
181
330
1F
100
AcDbEntity
  8
ST1
100
AcDbPolyline
 90
       33
 70
     0
 43
0.0
 10
1731.36528665157
 20
1120.505850548515
 10
1730.698169722972
 20
1119.911668168769
 10
1729.708636314399
 20
1119.037910169026
 10
1728.720488151079
 20
1118.182234698866
 10
1727.730866891154
 20
1117.351381416667
 10
1726.737651907491
 20
1116.549466595234
 10
1725.739429381032
 20
1115.784768801701
 10
1724.73214281118
 20
1115.061345270855
 10
1723.714438834437
 20
1114.383503584252
 10
1722.685763241512
 20
1113.757353223346
 10
1721.642713488012
 20
1113.188333154448
 10
1720.579525530931
 20
1112.679175097466
 10
1719.48593034977
 20
1112.228387117276
 10
1718.342154740869
 20
1111.829075407911
 10
1717.132609686078
 20
1111.477678526555
 10
1715.838517314831
 20
1111.170051077019
 10
1714.443477944304
 20
1110.901264658286
 10
1712.936440019232
 20
1110.668897770095
 10
1711.302877305731
 20
1110.470977937776
 10
1709.528592775043
 20
1110.303482361891
 10
1707.601595810546
 20
1110.163247977188
 10
1705.509426328135
 20
1110.045920847873
 10
1703.242444101013
 20
1109.948905887942
 10
1700.805602054662
 20
1109.868504989459
 10
1698.219280039731
 20
1109.804866154803
 10
1695.498532552398
 20
1109.755072093906
 10
1692.660663498212
 20
1109.717193968135
 10
1689.723061410243
 20
1109.690261792807
 10
1686.702671586607
 20
1109.672295164631
 10
1683.614710329808
 20
1109.661309532733
 10
1680.475637758338
 20
1109.655315122986
 10
1677.303547367436
 20
1109.653316326274
 10
1674.11217748719
 20
1109.653316326274
  0
LWPOLYLINE
  5
182
330
1F
100
AcDbEntity
  8
EDGES
100
AcDbPolyline
 90
       33
 70
     0
 43
0.0
 10
1674.11217748719
 20
1145.20331632627
 10
1674.11217748719
 20
1143.33631632628
 10
1674.11217748719
 20
1141.560316326273
 10
1674.11217748719
 20
1139.858316326278
 10
1674.11217748719
 20
1138.21431632628
 10
1674.11217748719
 20
1136.611316326277
 10
1674.11217748719
 20
1135.033316326268
 10
1674.11217748719
 20
1133.462316326269
 10
1674.11217748719
 20
1131.884316326274
 10
1674.11217748719
 20
1130.281316326271
 10
1674.11217748719
 20
1128.63831632627
 10
1674.11217748719
 20
1126.937316326273
 10
1674.11217748719
 20
1125.17831632628
 10
1674.11217748719
 20
1123.380316326272
 10
1674.11217748719
 20
1121.565316326279
 10
1674.11217748719
 20
1119.754316326275
 10
1674.11217748719
 20
1117.970316326274
 10
1674.11217748719
 20
1116.233316326269
 10
1674.11217748719
 20
1114.565316326274
 10
1674.11217748719
 20
1112.989316326274
 10
1674.11217748719
 20
1111.526316326272
 10
1674.11217748719
 20
1110.197316326274
 10
1674.11217748719
 20
1109.022316326271
 10
1674.11217748719
 20
1107.993316326268
 10
1674.11217748719
 20
1107.084316326275
 10
1674.11217748719
 20
1106.268316326275
 10
1674.11217748719
 20
1105.520316326273
 10
1674.11217748719
 20
1104.813316326268
 10
1674.11217748719
 20
1104.121316326267
 10
1674.11217748719
 20
1103.417316326268
 10
1674.11217748719
 20
1102.67531632628
 10
1674.11217748719
 20
1101.869316326268
 10
1674.11217748719
 20
1100.973316326271
  0
LWPOLYLINE
  5
183
330
1F
100
AcDbEntity
  8
ST1
100
AcDbPolyline
 90
       32
 70
     0
 43
0.0
 10
1741.929964817858
 20
1144.713316326271
 10
1741.585175572951
 20
1143.923381312672
 10
1741.237937031193
 20
1143.127834797629
 10
1740.891937031157
 20
1142.333834797629
 10
1740.545360251105
 20
1141.539804422532
 10
1740.19836025106
 20
1140.745804422507
 10
1739.851360251112
 20
1139.950804422575
 10
1739.504121456958
 20
1139.156258017586
 10
1739.158121456943
 20
1138.362258017505
 10
1738.811360251083
 20
1137.568804422487
 10
1738.463937031158
 20
1136.772834797653
 10
1738.118121456954
 20
1135.979258017496
 10
1737.771545124553
 20
1135.18622744705
 10
1737.424121456967
 20
1134.391258017551
 10
1737.077698815362
 20
1133.596288140525
 10
1736.732121456955
 20
1132.80325801756
 10
1736.38512145696
 20
1132.009258017518
 10
1736.039121457017
 20
1131.2152580176
 10
1735.692121456976
 20
1130.421258017584
 10
1735.345698815358
 20
1129.626288140529
 10
1734.999698815274
 20
1128.83228814042
 10
1734.654121456966
 20
1128.039258017551
 10
1734.307121457008
 20
1127.245258017594
 10
1733.960698815282
 20
1126.450288140423
 10
1733.614883269356
 20
1125.656711425157
 10
1733.269306358816
 20
1124.86468110702
 10
1732.922121456978
 20
1124.070258017589
 10
1732.576306273306
 20
1123.276682133626
 10
1732.229306273278
 20
1122.483682133637
 10
1731.883306273266
 20
1121.689682133562
 10
1731.536915850311
 20
1120.898075201509
 10
1731.36528665157
 20
1120.505850548515
  0
LWPOLYLINE
  5
184
330
1F
100
AcDbEntity
  8
ST2
100
AcDbPolyline
 90
       34
 70
     0
 43
0.0
 10
1671.108078818339
 20
1215.820781604073
 10
1674.989086252494
 20
1215.897742091441
 10
1678.8318341225
 20
1215.981605645893
 10
1682.616671007923
 20
1216.080340521155
 10
1686.320920839554
 20
1216.198868547509
 10
1689.922826337986
 20
1216.346047457987
 10
1691.426440363829
 20
1216.424453733923
 10
1693.400497283395
 20
1216.527672396378
 10
1696.732217674061
 20
1216.751437272551
 10
1699.895478534877
 20
1217.022855911145
 10
1702.868808126191
 20
1217.348094541258
 10
1705.627128669504
 20
1217.732794822347
 10
1708.149979845924
 20
1218.182162555886
 10
1710.435264599453
 20
1218.698008673016
 10
1712.504941550749
 20
1219.275992190286
 10
1714.37790635927
 20
1219.909467143218
 10
1716.07585578107
 20
1220.593911871385
 10
1717.619092217449
 20
1221.325361102437
 10
1719.028705004108
 20
1222.101858502755
 10
1720.326731404131
 20
1222.918824222625
 10
1721.533661853154
 20
1223.77692005963
 10
1722.66869918018
 20
1224.6734962774
 10
1723.751995370749
 20
1225.608941019432
 10
1724.794520293036
 20
1226.575160366415
 10
1725.798553034348
 20
1227.570603473989
 10
1726.768453894401
 20
1228.599633000057
 10
1727.709051377224
 20
1229.669836620314
 10
1728.625944083964
 20
1230.790907307584
 10
1729.524939538828
 20
1231.970121558467
 10
1730.40979948441
 20
1233.215054382342
 10
1731.285812563386
 20
1234.541067608085
 10
1732.157961935748
 20
1235.960957590704
 10
1733.031474621494
 20
1237.489604790788
 10
1733.924480316221
 20
1239.166328824018
  0
LWPOLYLINE
  5
185
330
1F
100
AcDbEntity
  8
EDGES
100
AcDbPolyline
 90
       33
 70
     0
 43
0.0
 10
1671.147731079536
 20
1261.338174718161
 10
1671.147731079536
 20
1259.471174718171
 10
1671.147731079536
 20
1257.695174718164
 10
1671.147731079536
 20
1255.99317471817
 10
1671.147731079536
 20
1254.349174718171
 10
1671.147731079536
 20
1252.746174718168
 10
1671.147731079536
 20
1251.168174718159
 10
1671.147731079536
 20
1249.597174718161
 10
1671.147731079536
 20
1248.019174718166
 10
1671.147731079536
 20
1246.416174718163
 10
1671.147731079536
 20
1244.773174718161
 10
1671.147731079536
 20
1243.072174718164
 10
1671.147731079536
 20
1241.313174718172
 10
1671.147731079536
 20
1239.515174718164
 10
1671.147731079536
 20
1237.70017471817
 10
1671.147731079536
 20
1235.889174718167
 10
1671.147731079536
 20
1234.105174718166
 10
1671.147731079536
 20
1232.36817471816
 10
1671.147731079536
 20
1230.700174718165
 10
1671.147731079536
 20
1229.124174718165
 10
1671.147731079536
 20
1227.661174718164
 10
1671.147731079536
 20
1226.332174718165
 10
1671.147731079536
 20
1225.157174718162
 10
1671.147731079536
 20
1224.128174718159
 10
1671.147731079536
 20
1223.219174718167
 10
1671.147731079536
 20
1222.403174718166
 10
1671.147731079536
 20
1221.655174718165
 10
1671.147731079536
 20
1220.948174718159
 10
1671.147731079536
 20
1220.256174718158
 10
1671.147731079536
 20
1219.552174718159
 10
1671.147731079536
 20
1218.810174718171
 10
1671.147731079536
 20
1218.00417471816
 10
1671.147731079536
 20
1217.108174718162
  0
LINE
  5
186
330
1F
100
AcDbEntity
  8
0
100
AcDbLine
 10
1671.147731079536
 20
1213.821174718162
 30
0.0
 11
1671.147731079536
 21
1217.108174718162
 31
0.0
  0
LWPOLYLINE
  5
187
330
1F
100
AcDbEntity
  8
EDGES
100
AcDbPolyline
 90
       33
 70
     0
 43
0.0
 10
1671.147731079536
 20
1285.848174718168
 10
1671.147731079536
 20
1285.019174718172
 10
1671.147731079536
 20
1284.191174718159
 10
1671.147731079536
 20
1283.36317471816
 10
1671.147731079536
 20
1282.536174718159
 10
1671.147731079536
 20
1281.711174718168
 10
1671.147731079536
 20
1280.887174718159
 10
1671.147731079536
 20
1280.066174718171
 10
1671.147731079536
 20
1279.247174718164
 10
1671.147731079536
 20
1278.431174718164
 10
1671.147731079536
 20
1277.61817471817
 10
1671.147731079536
 20
1276.809174718166
 10
1671.147731079536
 20
1276.004174718167
 10
1671.147731079536
 20
1275.204174718169
 10
1671.147731079536
 20
1274.40817471816
 10
1671.147731079536
 20
1273.618174718165
 10
1671.147731079536
 20
1272.833174718172
 10
1671.147731079536
 20
1272.054174718163
 10
1671.147731079536
 20
1271.282174718166
 10
1671.147731079536
 20
1270.516174718167
 10
1671.147731079536
 20
1269.757174718165
 10
1671.147731079536
 20
1269.006174718171
 10
1671.147731079536
 20
1268.263174718171
 10
1671.147731079536
 20
1267.527174718168
 10
1671.147731079536
 20
1266.801174718167
 10
1671.147731079536
 20
1266.083174718161
 10
1671.147731079536
 20
1265.37417471816
 10
1671.147731079536
 20
1264.675174718163
 10
1671.147731079536
 20
1263.986174718169
 10
1671.147731079536
 20
1263.308174718161
 10
1671.147731079536
 20
1262.640174718171
 10
1671.147731079536
 20
1261.983174718167
 10
1671.147731079536
 20
1261.338174718161
  0
LWPOLYLINE
  5
188
330
1F
100
AcDbEntity
  8
ST2
100
AcDbPolyline
 90
       33
 70
     0
 43
0.0
 10
1743.543780310219
 20
1261.685174718166
 10
1743.520975559909
 20
1261.627947703234
 10
1743.203135432175
 20
1260.831348389377
 10
1742.884893992056
 20
1260.033743270707
 10
1742.568374905301
 20
1259.23895086358
 10
1742.250858119273
 20
1258.44615737894
 10
1741.934506337727
 20
1257.654778947504
 10
1741.617322278129
 20
1256.866805969228
 10
1741.300571521699
 20
1256.079425539984
 10
1740.98456413481
 20
1255.295886719493
 10
1740.668319743394
 20
1254.515750712897
 10
1740.353084609602
 20
1253.738636253315
 10
1740.038447239033
 20
1252.966978145121
 10
1739.723405222373
 20
1252.198315503201
 10
1739.409727701275
 20
1251.434535634359
 10
1739.096499781232
 20
1250.677816754515
 10
1738.782868783647
 20
1249.924106706358
 10
1738.470627956991
 20
1249.177314155978
 10
1738.158610597285
 20
1248.437018191083
 10
1737.848021520419
 20
1247.704702731908
 10
1737.537491810185
 20
1246.980464110602
 10
1737.228230633225
 20
1246.263810806327
 10
1736.919459639984
 20
1245.557200264117
 10
1736.61130684828
 20
1244.858654546603
 10
1736.305179943802
 20
1244.171350270655
 10
1735.999649505131
 20
1243.496226559423
 10
1735.695022186762
 20
1242.831764382815
 10
1735.392355062338
 20
1242.181226602326
 10
1735.089929846931
 20
1241.54299156984
 10
1734.788474163347
 20
1240.916513634622
 10
1734.489140402359
 20
1240.305129318812
 10
1734.191463914639
 20
1239.709776343427
 10
1733.891108563447
 20
1239.120921773271
  0
LWPOLYLINE
  5
189
330
1F
100
AcDbEntity
  8
ST3
100
AcDbPolyline
 90
       34
 70
     0
 43
0.0
 10
1669.47275045296
 20
1332.707774514527
 10
1673.821794260695
 20
1332.803709304404
 10
1678.129690801428
 20
1332.911481559763
 10
1680.912909186243
 20
1332.998238994195
 10
1682.364584913035
 20
1333.045867452756
 10
1686.504890503811
 20
1333.221902545141
 10
1690.523666995117
 20
1333.445223046637
 10
1694.394267663184
 20
1333.727351228314
 10
1698.08986877637
 20
1334.079548130996
 10
1701.582428648355
 20
1334.51268055606
 10
1704.846748887283
 20
1335.035908919708
 10
1707.853418771852
 20
1335.658145397278
 10
1710.577177364591
 20
1336.386714918924
 10
1713.019628349985
 20
1337.222040741163
 10
1715.211468258118
 20
1338.155079121308
 10
1717.178921448958
 20
1339.172985650811
 10
1718.946236791674
 20
1340.26321870388
 10
1720.53851209004
 20
1341.417851084028
 10
1721.98173182926
 20
1342.628774950528
 10
1723.297566674168
 20
1343.88650312847
 10
1724.507846667546
 20
1345.183636288296
 10
1725.634305365383
 20
1346.513258155195
 10
1726.697537170385
 20
1347.865233202423
 10
1727.710658402714
 20
1349.220927608437
 10
1728.676567411529
 20
1350.574368659101
 10
1729.600247260215
 20
1351.933636478547
 10
1730.486763133916
 20
1353.307590433909
 10
1731.342505312757
 20
1354.70957166797
 10
1732.173481816731
 20
1356.152131346602
 10
1732.986778717165
 20
1357.648364161045
 10
1733.78917419118
 20
1359.208306759337
 10
1734.585644617252
 20
1360.845224506186
 10
1735.382363081611
 20
1362.569977885382
 10
1736.190834968834
 20
1364.409845893468
  0
LWPOLYLINE
  5
18A
330
1F
100
AcDbEntity
  8
EDGES
100
AcDbPolyline
 90
       33
 70
     0
 43
0.0
 10
1669.516857370295
 20
1386.218260928714
 10
1669.516857370295
 20
1384.351260928724
 10
1669.516857370295
 20
1382.575260928717
 10
1669.516857370295
 20
1380.873260928723
 10
1669.516857370295
 20
1379.229260928724
 10
1669.516857370295
 20
1377.626260928721
 10
1669.516857370295
 20
1376.048260928712
 10
1669.516857370295
 20
1374.477260928713
 10
1669.516857370295
 20
1372.899260928718
 10
1669.516857370295
 20
1371.296260928716
 10
1669.516857370295
 20
1369.653260928714
 10
1669.516857370295
 20
1367.952260928717
 10
1669.516857370295
 20
1366.193260928725
 10
1669.516857370295
 20
1364.395260928717
 10
1669.516857370295
 20
1362.580260928723
 10
1669.516857370295
 20
1360.76926092872
 10
1669.516857370295
 20
1358.985260928719
 10
1669.516857370295
 20
1357.248260928713
 10
1669.516857370295
 20
1355.580260928718
 10
1669.516857370295
 20
1354.004260928718
 10
1669.516857370295
 20
1352.541260928717
 10
1669.516857370295
 20
1351.212260928718
 10
1669.516857370295
 20
1350.037260928715
 10
1669.516857370295
 20
1349.008260928712
 10
1669.516857370295
 20
1348.09926092872
 10
1669.516857370295
 20
1347.283260928719
 10
1669.516857370295
 20
1346.535260928718
 10
1669.516857370295
 20
1345.828260928712
 10
1669.516857370295
 20
1345.136260928711
 10
1669.516857370295
 20
1344.432260928712
 10
1669.516857370295
 20
1343.690260928724
 10
1669.516857370295
 20
1342.884260928713
 10
1669.516857370295
 20
1341.988260928716
  0
LINE
  5
18B
330
1F
100
AcDbEntity
  8
0
100
AcDbLine
 10
1669.516857370295
 20
1330.708260928716
 30
0.0
 11
1669.516857370295
 21
1341.988260928716
 31
0.0
  0
LWPOLYLINE
  5
18C
330
1F
100
AcDbEntity
  8
EDGES
100
AcDbPolyline
 90
       33
 70
     0
 43
0.0
 10
1669.516857370295
 20
1410.728260928721
 10
1669.516857370295
 20
1409.899260928725
 10
1669.516857370295
 20
1409.071260928712
 10
1669.516857370295
 20
1408.243260928713
 10
1669.516857370295
 20
1407.416260928713
 10
1669.516857370295
 20
1406.591260928721
 10
1669.516857370295
 20
1405.767260928712
 10
1669.516857370295
 20
1404.946260928724
 10
1669.516857370295
 20
1404.127260928718
 10
1669.516857370295
 20
1403.311260928717
 10
1669.516857370295
 20
1402.498260928723
 10
1669.516857370295
 20
1401.689260928719
 10
1669.516857370295
 20
1400.88426092872
 10
1669.516857370295
 20
1400.084260928722
 10
1669.516857370295
 20
1399.288260928713
 10
1669.516857370295
 20
1398.498260928719
 10
1669.516857370295
 20
1397.713260928725
 10
1669.516857370295
 20
1396.934260928716
 10
1669.516857370295
 20
1396.162260928719
 10
1669.516857370295
 20
1395.39626092872
 10
1669.516857370295
 20
1394.637260928718
 10
1669.516857370295
 20
1393.886260928724
 10
1669.516857370295
 20
1393.143260928724
 10
1669.516857370295
 20
1392.407260928721
 10
1669.516857370295
 20
1391.68126092872
 10
1669.516857370295
 20
1390.963260928714
 10
1669.516857370295
 20
1390.254260928713
 10
1669.516857370295
 20
1389.555260928716
 10
1669.516857370295
 20
1388.866260928722
 10
1669.516857370295
 20
1388.188260928715
 10
1669.516857370295
 20
1387.520260928724
 10
1669.516857370295
 20
1386.86326092872
 10
1669.516857370295
 20
1386.218260928714
  0
LWPOLYLINE
  5
18D
330
1F
100
AcDbEntity
  8
ST3
100
AcDbPolyline
 90
       33
 70
     0
 43
0.0
 10
1745.021279566271
 20
1387.994260928721
 10
1744.965235574371
 20
1387.835917458457
 10
1744.67400349375
 20
1387.011260295319
 10
1744.383130524044
 20
1386.187619996222
 10
1744.092385134037
 20
1385.365340078796
 10
1743.801897115485
 20
1384.544786294444
 10
1743.511048417767
 20
1383.726212124598
 10
1743.221331374971
 20
1382.909010259065
 10
1742.932111725235
 20
1382.097200621559
 10
1742.642399883036
 20
1381.286007463409
 10
1742.353955495097
 20
1380.47856279271
 10
1742.066023397029
 20
1379.676537398307
 10
1741.777865280645
 20
1378.877870785091
 10
1741.490718657599
 20
1378.084229424211
 10
1741.203724133457
 20
1377.29499448285
 10
1740.917886330364
 20
1376.512177363626
 10
1740.632069457651
 20
1375.73439695379
 10
1740.347419966791
 20
1374.963056550276
 10
1740.062946433945
 20
1374.198160932293
 10
1739.779251735364
 20
1373.43965089598
 10
1739.497154093587
 20
1372.689708221597
 10
1739.215103112204
 20
1371.94783468963
 10
1738.933679165867
 20
1371.211955819275
 10
1738.653627695796
 20
1370.485013705543
 10
1738.375242177413
 20
1369.768740645712
 10
1738.096940234097
 20
1369.061596206198
 10
1737.81945245411
 20
1368.36292161723
 10
1737.54276882564
 20
1367.67369179013
 10
1737.268838829777
 20
1366.99628367757
 10
1736.995998449572
 20
1366.332404918468
 10
1736.72233097013
 20
1365.67639334316
 10
1736.450719730356
 20
1365.031440108455
 10
1736.178826141824
 20
1364.395367881245
  0
LWPOLYLINE
  5
18E
330
1F
100
AcDbEntity
  8
ST4
100
AcDbPolyline
 90
       34
 70
     0
 43
0.0
 10
1637.54423710919
 20
1465.345883686979
 10
1632.94610481469
 20
1465.437806366483
 10
1628.389408276109
 20
1465.546536647279
 10
1623.905012296205
 20
1465.686922933505
 10
1619.519484135993
 20
1465.877684466526
 10
1615.264550317201
 20
1466.132405638538
 10
1611.16925512236
 20
1466.467340516955
 10
1607.263590687707
 20
1466.897367062173
 10
1603.578403813847
 20
1467.436686575456
 10
1600.143051823263
 20
1468.098489886797
 10
1596.992531314295
 20
1468.892132457743
 10
1594.151979342947
 20
1469.829162984263
 10
1591.615046995079
 20
1470.910771617932
 10
1589.347850734841
 20
1472.121128663529
 10
1587.320851315293
 20
1473.44446438036
 10
1585.506028485221
 20
1474.862935872916
 10
1583.87930135825
 20
1476.362589542538
 10
1582.902621686704
 20
1477.406724716668
 10
1582.41639647735
 20
1477.92768029815
 10
1581.092211675994
 20
1479.548648845088
 10
1579.884878554207
 20
1481.206109323518
 10
1578.773027255808
 20
1482.883521031085
 10
1577.734079925726
 20
1484.565719053373
 10
1576.752874874705
 20
1486.225615485969
 10
1575.824151408817
 20
1487.854075573766
 10
1574.944198265888
 20
1489.460946530404
 10
1574.105546597605
 20
1491.060850939639
 10
1573.302112250907
 20
1492.667719633091
 10
1572.527137892146
 20
1494.298884097824
 10
1571.772922292528
 20
1495.969912426353
 10
1571.033717472817
 20
1497.693416501962
 10
1570.30408436359
 20
1499.486565973622
 10
1569.576628099612
 20
1501.363777198776
 10
1568.840906877701
 20
1503.351515236915
  0
LWPOLYLINE
  5
18F
330
1F
100
AcDbEntity
  8
ST6
100
AcDbPolyline
 90
       33
 70
     0
 43
0.0
 10
1435.537466166301
 20
1082.537798111783
 10
1430.992129619372
 20
1082.566768388673
 10
1426.476520502872
 20
1082.616609548901
 10
1422.023404725245
 20
1082.709092748384
 10
1417.664222928313
 20
1082.865769437172
 10
1413.431536946121
 20
1083.109867834934
 10
1409.359526210609
 20
1083.462243915023
 10
1405.481484646172
 20
1083.941002391422
 10
1401.832662184438
 20
1084.566959148302
 10
1398.449375642517
 20
1085.357419663648
 10
1395.366245431575
 20
1086.324937097294
 10
1392.610992076044
 20
1087.483417179124
 10
1390.171106907692
 20
1088.836950434149
 10
1388.006380177579
 20
1090.366789375938
 10
1386.085111161106
 20
1092.050796034377
 10
1384.37728971874
 20
1093.869430318393
 10
1382.874685466938
 20
1095.778093253464
 10
1381.522704391152
 20
1097.81078547142
 10
1380.324713924401
 20
1099.8910539491
 10
1379.247856789326
 20
1102.007203435536
 10
1378.269890313138
 20
1104.129536653958
 10
1377.366067783517
 20
1106.231243667867
 10
1376.517170749753
 20
1108.276719017611
 10
1375.716042946815
 20
1110.253759659992
 10
1374.959244551581
 20
1112.175928655987
 10
1374.243277440758
 20
1114.063119206067
 10
1373.561082420446
 20
1115.934226357265
 10
1372.910134511076
 20
1117.81025626239
 10
1372.282003753162
 20
1119.712370093616
 10
1371.674482137025
 20
1121.658999323819
 10
1371.080277196062
 20
1123.671215724379
 10
1370.496141420358
 20
1125.76996031026
 10
1369.911620883633
 20
1127.986764386636
  0
LWPOLYLINE
  5
190
330
1F
100
AcDbEntity
  8
ST7
100
AcDbPolyline
 90
       33
 70
     0
 43
0.0
 10
1421.298368450434
 20
1232.675011548144
 10
1417.232286753387
 20
1232.678007923742
 10
1413.181400648138
 20
1232.700916795248
 10
1409.174708241783
 20
1232.768439740385
 10
1405.243243460962
 20
1232.902028400191
 10
1401.417628872953
 20
1233.125731262509
 10
1397.731188360648
 20
1233.460060043005
 10
1394.216949514269
 20
1233.927586275338
 10
1390.909614875249
 20
1234.546564816531
 10
1387.846774421695
 20
1235.334943194427
 10
1385.062592464388
 20
1236.306868968851
 10
1382.580858405683
 20
1237.475614069521
 10
1380.38879247234
 20
1238.847488108916
 10
1378.447447322213
 20
1240.403674772635
 10
1376.736888824555
 20
1242.131687948823
 10
1375.219127288265
 20
1244.008479872948
 10
1373.87455217345
 20
1246.006134329306
 10
1372.682151442373
 20
1248.097567357626
 10
1371.62385626912
 20
1250.255265827298
 10
1370.676343927992
 20
1252.449708272871
 10
1369.818781683076
 20
1254.650687140377
 10
1369.02804500477
 20
1256.826691939595
 10
1368.283418220518
 20
1258.94143200693
 10
1367.57902049972
 20
1260.98209902872
 10
1366.912704955818
 20
1262.963197922788
 10
1366.281159699266
 20
1264.90435818616
 10
1365.679582313108
 20
1266.824664325229
 10
1365.106572214097
 20
1268.746861714124
 10
1364.556352201556
 20
1270.692352905582
 10
1364.024941986228
 20
1272.680951058289
 10
1363.509200455873
 20
1274.733069843335
 10
1363.005753555064
 20
1276.870251294969
 10
1362.506713020914
 20
1279.126868849608
  0
LWPOLYLINE
  5
191
330
1F
100
AcDbEntity
  8
ST5
100
AcDbPolyline
 90
       35
 70
     0
 43
0.0
 10
1630.414691766231
 20
1610.521308443706
 10
1625.736056659299
 20
1610.578255315601
 10
1621.093335247854
 20
1610.655035716956
 10
1616.520540245053
 20
1610.771444989222
 10
1614.802289003355
 20
1610.839778900271
 10
1612.053832427161
 20
1610.955868943385
 10
1607.716530410853
 20
1611.222125046157
 10
1603.543675788521
 20
1611.586053988644
 10
1599.56758725631
 20
1612.064166362757
 10
1595.822720842042
 20
1612.6740000024
 10
1592.340627994369
 20
1613.43080839786
 10
1589.156782706594
 20
1614.346355254949
 10
1586.298758950908
 20
1615.434991327059
 10
1583.755960080752
 20
1616.697035357929
 10
1581.490499426015
 20
1618.115394517326
 10
1579.470927404417
 20
1619.669412822537
 10
1577.670380133263
 20
1621.339350447114
 10
1576.061926439907
 20
1623.106212458711
 10
1574.620921637905
 20
1624.950170142533
 10
1573.324570535116
 20
1626.849519483856
 10
1572.151964144287
 20
1628.783072575141
 10
1571.07965943298
 20
1630.72892750787
 10
1570.084794114576
 20
1632.661808697929
 10
1569.149006212792
 20
1634.552139744151
 10
1568.266831701044
 20
1636.388603817392
 10
1567.433533822527
 20
1638.183399247997
 10
1566.642951884934
 20
1639.953593922784
 10
1565.889025958734
 20
1641.716030931504
 10
1565.166024099618
 20
1643.491118376328
 10
1564.466380647689
 20
1645.296237788059
 10
1563.784043565014
 20
1647.150542885905
 10
1563.113749510051
 20
1649.069887096186
 10
1562.449558162545
 20
1651.073301056839
 10
1562.084554484385
 20
1652.233420855609
 10
1561.784955320235
 20
1653.190140853002
  0
LINE
  5
192
330
1F
100
AcDbEntity
  8
0
100
AcDbLine
 10
1714.255090118794
 20
1528.668283219623
 30
0.0
 11
1560.753434841443
 21
1528.668283219623
 31
0.0
  0
LWPOLYLINE
  5
193
330
1F
100
AcDbEntity
  8
GRID
100
AcDbPolyline
 90
        2
 70
     0
 43
0.0
 10
1557.504262480077
 20
1484.836283219628
 10
1717.504262480103
 20
1484.836283219628
  0
LINE
  5
194
330
1F
100
AcDbEntity
  8
0
100
AcDbLine
 10
1706.228359721431
 20
1680.308456577158
 30
0.0
 11
1554.55234067783
 21
1680.308456577158
 31
0.0
  0
LWPOLYLINE
  5
195
330
1F
100
AcDbEntity
  8
GRID
100
AcDbPolyline
 90
        2
 70
     0
 43
0.0
 10
1550.39035019959
 20
1634.106456577164
 10
1710.390350199615
 20
1634.106456577164
  0
LINE
  5
196
330
1F
100
AcDbEntity
  8
0
100
AcDbLine
 10
1507.29522518688
 20
1156.523838733644
 30
0.0
 11
1363.754213158046
 21
1156.523838733644
 31
0.0
  0
LWPOLYLINE
  5
197
330
1F
100
AcDbEntity
  8
GRID
100
AcDbPolyline
 90
        2
 70
     0
 43
0.0
 10
1355.524719172422
 20
1107.875838733658
 10
1515.524719172447
 20
1107.875838733658
  0
LINE
  5
198
330
1F
100
AcDbEntity
  8
0
100
AcDbLine
 10
1485.037346887133
 20
1308.288012091194
 30
0.0
 11
1357.556442335841
 21
1308.288012091194
 31
0.0
  0
LWPOLYLINE
  5
199
330
1F
100
AcDbEntity
  8
GRID
100
AcDbPolyline
 90
        2
 70
     0
 43
0.0
 10
1341.296894611446
 20
1257.146012091195
 10
1501.296894611472
 20
1257.146012091195
  0
LWPOLYLINE
  5
19A
330
1F
100
AcDbEntity
  8
ST4
100
AcDbPolyline
 90
       33
 70
     0
 43
0.0
 10
1560.753434841443
 20
1528.668283219623
 10
1560.842980254796
 20
1528.373389301912
 10
1561.10888794481
 20
1527.497693300255
 10
1561.374702938084
 20
1526.623301875036
 10
1561.640822632043
 20
1525.748908594924
 10
1561.90554404163
 20
1524.876826366404
 10
1562.171170512907
 20
1524.007049462181
 10
1562.436316266309
 20
1523.137571501073
 10
1562.699845679272
 20
1522.273115169207
 10
1562.964275388838
 20
1521.410974531262
 10
1563.228133241705
 20
1520.551437586177
 10
1563.490360226903
 20
1519.69795355837
 10
1563.753895480048
 20
1518.847453423275
 10
1564.015324331251
 20
1518.001302026894
 10
1564.277221682118
 20
1517.161836373801
 10
1564.538753426015
 20
1516.326332291261
 10
1564.798947750279
 20
1515.496900575492
 10
1565.05902389831
 20
1514.673824336965
 10
1565.317974589084
 20
1513.85713369692
 10
1565.576684887796
 20
1513.048166493537
 10
1565.834711963209
 20
1512.246190448421
 10
1566.091478524102
 20
1511.452005504181
 10
1566.347982748008
 20
1510.665591391279
 10
1566.603571660484
 20
1509.887885050695
 10
1566.857749569459
 20
1509.120386911426
 10
1567.112249749099
 20
1508.360862937916
 10
1567.364572500645
 20
1507.610848459849
 10
1567.61631848779
 20
1506.87245963923
 10
1567.867245011095
 20
1506.143483375843
 10
1568.117097670216
 20
1505.4256527204
 10
1568.365300656225
 20
1504.719609166547
 10
1568.613513469992
 20
1504.025404404524
 10
1568.861515399289
 20
1503.338170142603
  0
LWPOLYLINE
  5
19B
330
1F
100
AcDbEntity
  8
ST5
100
AcDbPolyline
 90
       33
 70
     0
 43
0.0
 10
1554.55234067783
 20
1680.308456577158
 10
1554.664283046097
 20
1679.865904756901
 10
1554.900530137433
 20
1678.931927908415
 10
1555.135651985747
 20
1677.998444144821
 10
1555.370465032469
 20
1677.068184797913
 10
1555.605277132507
 20
1676.138928402147
 10
1555.840211419039
 20
1675.211187900337
 10
1556.074144963898
 20
1674.286450596857
 10
1556.307827523632
 20
1673.364702722489
 10
1556.541379006793
 20
1672.446466121934
 10
1556.775115310134
 20
1671.531498370535
 10
1557.007848296949
 20
1670.620543503612
 10
1557.240254535155
 20
1669.714857390688
 10
1557.472845904167
 20
1668.81344105514
 10
1557.704431058311
 20
1667.91704679463
 10
1557.935606953382
 20
1667.027218888114
 10
1558.166966308703
 20
1666.143665488194
 10
1558.397384275491
 20
1665.26588275752
 10
1558.627646415754
 20
1664.394674486517
 10
1558.856744352599
 20
1663.532070950348
 10
1559.085613425027
 20
1662.678289802057
 10
1559.314663513367
 20
1661.830804475159
 10
1559.542610534223
 20
1660.992676127704
 10
1559.770446391271
 20
1660.162915844782
 10
1559.997164968321
 20
1659.343546952265
 10
1560.223843310303
 20
1658.533271299975
 10
1560.449616514195
 20
1657.732621832415
 10
1560.673704844375
 20
1656.945338052925
 10
1560.898954422777
 20
1656.167383562063
 10
1561.122376325065
 20
1655.400798190662
 10
1561.34493869442
 20
1654.648042799188
 10
1561.567643741039
 20
1653.90767224422
 10
1561.790697960522
 20
1653.174779808594
  0
LWPOLYLINE
  5
19C
330
1F
100
AcDbEntity
  8
ST6
100
AcDbPolyline
 90
       33
 70
     0
 43
0.0
 10
1363.754213158046
 20
1156.523838733644
 10
1363.872028797669
 20
1155.941305848884
 10
1364.069989416146
 20
1154.962500568691
 10
1364.267910498149
 20
1153.984890375542
 10
1364.465987341537
 20
1153.007511203929
 10
1364.662828874272
 20
1152.033295496303
 10
1364.860669434725
 20
1151.06107900484
 10
1365.057863265075
 20
1150.089123627632
 10
1365.253582540279
 20
1149.122510064461
 10
1365.450098970603
 20
1148.160876364861
 10
1365.646970974766
 20
1147.200500750725
 10
1365.842799933939
 20
1146.245335010889
 10
1366.0384230162
 20
1145.295165754276
 10
1366.233955298454
 20
1144.350425594682
 10
1366.429479918602
 20
1143.411707902862
 10
1366.625162962945
 20
1142.477221527921
 10
1366.81953762058
 20
1141.551200723177
 10
1367.014944684402
 20
1140.631989943438
 10
1367.209464189912
 20
1139.718247035324
 10
1367.403703781783
 20
1138.814783908097
 10
1367.597923000303
 20
1137.918387515015
 10
1367.792071906787
 20
1137.031276357528
 10
1367.986144183189
 20
1136.15247728037
 10
1368.180081534062
 20
1135.284234678855
 10
1368.373983337412
 20
1134.426094902843
 10
1368.567848011357
 20
1133.578061226637
 10
1368.761553525838
 20
1132.740657387188
 10
1368.955148597261
 20
1131.915644544209
 10
1369.148686094675
 20
1131.101794555157
 10
1369.341818664898
 20
1130.301532417882
 10
1369.536080834193
 20
1129.51259013856
 10
1369.729190135636
 20
1128.737182020536
 10
1369.923913520345
 20
1127.972197294955
  0
LWPOLYLINE
  5
19D
330
1F
100
AcDbEntity
  8
ST7
100
AcDbPolyline
 90
       33
 70
     0
 43
0.0
 10
1357.556442335841
 20
1308.288012091194
 10
1357.664796213794
 20
1307.59855015441
 10
1357.820748748126
 20
1306.59985411728
 10
1357.977677329363
 20
1305.603307649167
 10
1358.133933110285
 20
1304.605674586396
 10
1358.288838236058
 20
1303.611283617764
 10
1358.444541632289
 20
1302.621169713556
 10
1358.600550337627
 20
1301.632114523969
 10
1358.755404475566
 20
1300.647042394925
 10
1358.91120782817
 20
1299.665281525656
 10
1359.066009048292
 20
1298.6885357626
 10
1359.221623282873
 20
1297.715946796497
 10
1359.377526933573
 20
1296.74754527355
 10
1359.532241265118
 20
1295.784323790094
 10
1359.68776020218
 20
1294.829278009963
 10
1359.84343524205
 20
1293.878263183089
 10
1359.998908215141
 20
1292.935459128346
 10
1360.155339187827
 20
1291.998866043481
 10
1360.311872019901
 20
1291.069639295124
 10
1360.468392956729
 20
1290.148458749728
 10
1360.62468952094
 20
1289.236562871918
 10
1360.78196424927
 20
1288.333726298523
 10
1360.939372049006
 20
1287.438095843053
 10
1361.096500929503
 20
1286.553997268624
 10
1361.254561096914
 20
1285.680192946865
 10
1361.41258626624
 20
1284.817514663986
 10
1361.571532830556
 20
1283.965163712816
 10
1361.730396609981
 20
1283.125171479065
 10
1361.889988303719
 20
1282.297475427941
 10
1362.050881381171
 20
1281.480098867749
 10
1362.210442845834
 20
1280.677336219401
 10
1362.371683663736
 20
1279.888937864309
 10
1362.534021518726
 20
1279.10812265988
  0
LWPOLYLINE
  5
19E
330
1F
100
AcDbEntity
  8
ST4
100
AcDbPolyline
 90
       34
 70
     0
 43
0.0
 10
1637.464287851047
 20
1465.345883686979
 10
1642.062420145547
 20
1465.437806366483
 10
1646.619116684128
 20
1465.546536647279
 10
1651.103512664031
 20
1465.686922933505
 10
1655.489040824243
 20
1465.877684466526
 10
1659.743974643036
 20
1466.132405638538
 10
1663.839269837876
 20
1466.467340516955
 10
1667.74493427253
 20
1466.897367062173
 10
1671.43012114639
 20
1467.436686575456
 10
1674.865473136974
 20
1468.098489886797
 10
1678.015993645941
 20
1468.892132457743
 10
1680.856545617289
 20
1469.829162984263
 10
1683.393477965157
 20
1470.910771617932
 10
1685.660674225396
 20
1472.121128663529
 10
1687.687673644943
 20
1473.44446438036
 10
1689.502496475016
 20
1474.862935872916
 10
1691.129223601986
 20
1476.362589542538
 10
1692.105903273533
 20
1477.406724716668
 10
1692.592128482886
 20
1477.92768029815
 10
1693.916313284242
 20
1479.548648845088
 10
1695.12364640603
 20
1481.206109323518
 10
1696.235497704429
 20
1482.883521031085
 10
1697.27444503451
 20
1484.565719053373
 10
1698.255650085532
 20
1486.225615485969
 10
1699.184373551419
 20
1487.854075573766
 10
1700.064326694349
 20
1489.460946530404
 10
1700.902978362631
 20
1491.060850939639
 10
1701.706412709329
 20
1492.667719633091
 10
1702.481387068091
 20
1494.298884097824
 10
1703.235602667709
 20
1495.969912426353
 10
1703.97480748742
 20
1497.693416501962
 10
1704.704440596646
 20
1499.486565973622
 10
1705.431896860624
 20
1501.363777198776
 10
1706.167618082536
 20
1503.351515236915
  0
LWPOLYLINE
  5
19F
330
1F
100
AcDbEntity
  8
EDGES
100
AcDbPolyline
 90
       33
 70
     0
 43
0.0
 10
1637.504262480119
 20
1525.836283219625
 10
1637.504262480119
 20
1524.930283219624
 10
1637.504262480119
 20
1524.024283219624
 10
1637.504262480119
 20
1523.117283219626
 10
1637.504262480119
 20
1522.211283219625
 10
1637.504262480119
 20
1521.305283219625
 10
1637.504262480119
 20
1520.399283219624
 10
1637.504262480119
 20
1519.492283219626
 10
1637.504262480119
 20
1518.586283219626
 10
1637.504262480119
 20
1517.680283219625
 10
1637.504262480119
 20
1516.774283219624
 10
1637.504262480119
 20
1515.867283219626
 10
1637.504262480119
 20
1514.961283219626
 10
1637.504262480119
 20
1514.055283219626
 10
1637.504262480119
 20
1513.149283219625
 10
1637.504262480119
 20
1512.242283219627
 10
1637.504262480119
 20
1511.336283219627
 10
1637.504262480119
 20
1510.430283219626
 10
1637.504262480119
 20
1509.524283219625
 10
1637.504262480119
 20
1508.617283219627
 10
1637.504262480119
 20
1507.711283219627
 10
1637.504262480119
 20
1506.805283219627
 10
1637.504262480119
 20
1505.899283219626
 10
1637.504262480119
 20
1504.992283219614
 10
1637.504262480119
 20
1504.086283219628
 10
1637.504262480119
 20
1503.180283219627
 10
1637.504262480119
 20
1502.274283219626
 10
1637.504262480119
 20
1501.367283219614
 10
1637.504262480119
 20
1500.461283219628
 10
1637.504262480119
 20
1499.555283219628
 10
1637.504262480119
 20
1498.649283219627
 10
1637.504262480119
 20
1497.742283219615
 10
1637.504262480119
 20
1496.836283219614
  0
LINE
  5
1A0
330
1F
100
AcDbEntity
  8
0
100
AcDbLine
 10
1637.504262480119
 20
1463.346283219628
 30
0.0
 11
1637.504262480119
 21
1496.836283219614
 31
0.0
  0
LWPOLYLINE
  5
1A1
330
1F
100
AcDbEntity
  8
EDGES
100
AcDbPolyline
 90
       33
 70
     0
 43
0.0
 10
1637.504262480119
 20
1549.336283219624
 10
1637.504262480119
 20
1548.507283219627
 10
1637.504262480119
 20
1547.679283219615
 10
1637.504262480119
 20
1546.851283219616
 10
1637.504262480119
 20
1546.024283219615
 10
1637.504262480119
 20
1545.199283219623
 10
1637.504262480119
 20
1544.375283219614
 10
1637.504262480119
 20
1543.554283219627
 10
1637.504262480119
 20
1542.73528321962
 10
1637.504262480119
 20
1541.919283219619
 10
1637.504262480119
 20
1541.106283219626
 10
1637.504262480119
 20
1540.297283219622
 10
1637.504262480119
 20
1539.492283219622
 10
1637.504262480119
 20
1538.692283219624
 10
1637.504262480119
 20
1537.896283219616
 10
1637.504262480119
 20
1537.106283219621
 10
1637.504262480119
 20
1536.321283219628
 10
1637.504262480119
 20
1535.542283219619
 10
1637.504262480119
 20
1534.770283219621
 10
1637.504262480119
 20
1534.004283219623
 10
1637.504262480119
 20
1533.24528321962
 10
1637.504262480119
 20
1532.494283219627
 10
1637.504262480119
 20
1531.751283219627
 10
1637.504262480119
 20
1531.015283219623
 10
1637.504262480119
 20
1530.289283219623
 10
1637.504262480119
 20
1529.571283219617
 10
1637.504262480119
 20
1528.862283219616
 10
1637.504262480119
 20
1528.163283219619
 10
1637.504262480119
 20
1527.474283219625
 10
1637.504262480119
 20
1526.796283219617
 10
1637.504262480119
 20
1526.128283219627
 10
1637.504262480119
 20
1525.471283219623
 10
1637.504262480119
 20
1524.826283219617
  0
LWPOLYLINE
  5
1A2
330
1F
100
AcDbEntity
  8
ST4
100
AcDbPolyline
 90
       33
 70
     0
 43
0.0
 10
1714.255090118794
 20
1528.668283219623
 10
1714.165544705441
 20
1528.373389301912
 10
1713.899637015427
 20
1527.497693300255
 10
1713.633822022152
 20
1526.623301875036
 10
1713.367702328194
 20
1525.748908594924
 10
1713.102980918606
 20
1524.876826366404
 10
1712.837354447329
 20
1524.007049462181
 10
1712.572208693927
 20
1523.137571501073
 10
1712.308679280965
 20
1522.273115169207
 10
1712.044249571399
 20
1521.410974531262
 10
1711.780391718531
 20
1520.551437586177
 10
1711.518164733334
 20
1519.69795355837
 10
1711.254629480189
 20
1518.847453423275
 10
1710.993200628986
 20
1518.001302026894
 10
1710.731303278119
 20
1517.161836373801
 10
1710.469771534221
 20
1516.326332291261
 10
1710.209577209958
 20
1515.496900575492
 10
1709.949501061927
 20
1514.673824336965
 10
1709.690550371153
 20
1513.85713369692
 10
1709.431840072441
 20
1513.048166493537
 10
1709.173812997027
 20
1512.246190448421
 10
1708.917046436135
 20
1511.452005504181
 10
1708.660542212228
 20
1510.665591391279
 10
1708.404953299753
 20
1509.887885050695
 10
1708.150775390778
 20
1509.120386911426
 10
1707.896275211138
 20
1508.360862937916
 10
1707.643952459592
 20
1507.610848459849
 10
1707.392206472446
 20
1506.87245963923
 10
1707.141279949142
 20
1506.143483375843
 10
1706.891427290021
 20
1505.4256527204
 10
1706.643224304011
 20
1504.719609166547
 10
1706.395011490245
 20
1504.025404404524
 10
1706.147009560948
 20
1503.338170142603
  0
LWPOLYLINE
  5
1A3
330
1F
100
AcDbEntity
  8
ST5
100
AcDbPolyline
 90
       33
 70
     0
 43
0.0
 10
1706.228359721431
 20
1680.308456577158
 10
1706.116417353164
 20
1679.865904756901
 10
1705.880170261828
 20
1678.931927908415
 10
1705.645048413514
 20
1677.998444144821
 10
1705.410235366792
 20
1677.068184797913
 10
1705.175423266754
 20
1676.138928402147
 10
1704.940488980222
 20
1675.211187900337
 10
1704.706555435363
 20
1674.286450596857
 10
1704.472872875629
 20
1673.364702722489
 10
1704.239321392469
 20
1672.446466121934
 10
1704.005585089127
 20
1671.531498370535
 10
1703.772852102312
 20
1670.620543503612
 10
1703.540445864106
 20
1669.714857390688
 10
1703.307854495094
 20
1668.81344105514
 10
1703.07626934095
 20
1667.91704679463
 10
1702.84509344588
 20
1667.027218888114
 10
1702.613734090558
 20
1666.143665488194
 10
1702.38331612377
 20
1665.26588275752
 10
1702.153053983507
 20
1664.394674486517
 10
1701.923956046662
 20
1663.532070950348
 10
1701.695086974234
 20
1662.678289802057
 10
1701.466036885894
 20
1661.830804475159
 10
1701.238089865038
 20
1660.992676127704
 10
1701.01025400799
 20
1660.162915844782
 10
1700.78353543094
 20
1659.343546952265
 10
1700.556857088957
 20
1658.533271299975
 10
1700.331083885066
 20
1657.732621832415
 10
1700.106995554886
 20
1656.945338052925
 10
1699.881745976484
 20
1656.167383562063
 10
1699.658324074197
 20
1655.400798190662
 10
1699.435761704841
 20
1654.648042799188
 10
1699.213056658222
 20
1653.90767224422
 10
1698.990002438739
 20
1653.174779808594
  0
LINE
  5
1A4
330
1F
100
AcDbEntity
  8
0
100
AcDbLine
 10
1630.390350199631
 20
1608.521456577158
 30
0.0
 11
1630.390350199631
 21
1674.096456577153
 31
0.0
  0
LWPOLYLINE
  5
1A5
330
1F
100
AcDbEntity
  8
ST5
100
AcDbPolyline
 90
       35
 70
     0
 43
0.0
 10
1630.36600863303
 20
1610.521308443706
 10
1635.044643739962
 20
1610.578255315601
 10
1639.687365151407
 20
1610.655035716956
 10
1644.260160154208
 20
1610.771444989222
 10
1645.978411395907
 20
1610.839778900271
 10
1648.726867972101
 20
1610.955868943385
 10
1653.064169988408
 20
1611.222125046157
 10
1657.237024610741
 20
1611.586053988644
 10
1661.213113142951
 20
1612.064166362757
 10
1664.957979557219
 20
1612.6740000024
 10
1668.440072404893
 20
1613.43080839786
 10
1671.623917692667
 20
1614.346355254949
 10
1674.481941448353
 20
1615.434991327059
 10
1677.024740318509
 20
1616.697035357929
 10
1679.290200973246
 20
1618.115394517326
 10
1681.309772994844
 20
1619.669412822537
 10
1683.110320265998
 20
1621.339350447114
 10
1684.718773959355
 20
1623.106212458711
 10
1686.159778761356
 20
1624.950170142533
 10
1687.456129864146
 20
1626.849519483856
 10
1688.628736254974
 20
1628.783072575141
 10
1689.701040966281
 20
1630.72892750787
 10
1690.695906284685
 20
1632.661808697929
 10
1691.631694186469
 20
1634.552139744151
 10
1692.513868698217
 20
1636.388603817392
 10
1693.347166576734
 20
1638.183399247997
 10
1694.137748514327
 20
1639.953593922784
 10
1694.891674440527
 20
1641.716030931504
 10
1695.614676299643
 20
1643.491118376328
 10
1696.314319751572
 20
1645.296237788059
 10
1696.996656834247
 20
1647.150542885905
 10
1697.66695088921
 20
1649.069887096186
 10
1698.331142236716
 20
1651.073301056839
 10
1698.696145914876
 20
1652.233420855609
 10
1698.995745079026
 20
1653.190140853002
  0
LWPOLYLINE
  5
1A6
330
1F
100
AcDbEntity
  8
EDGES
100
AcDbPolyline
 90
       33
 70
     0
 43
0.0
 10
1630.390350199631
 20
1698.60645657716
 10
1630.390350199631
 20
1697.777456577163
 10
1630.390350199631
 20
1696.949456577151
 10
1630.390350199631
 20
1696.121456577152
 10
1630.390350199631
 20
1695.294456577152
 10
1630.390350199631
 20
1694.469456577159
 10
1630.390350199631
 20
1693.645456577151
 10
1630.390350199631
 20
1692.824456577163
 10
1630.390350199631
 20
1692.005456577156
 10
1630.390350199631
 20
1691.189456577156
 10
1630.390350199631
 20
1690.376456577162
 10
1630.390350199631
 20
1689.567456577158
 10
1630.390350199631
 20
1688.762456577159
 10
1630.390350199631
 20
1687.96245657716
 10
1630.390350199631
 20
1687.166456577152
 10
1630.390350199631
 20
1686.376456577157
 10
1630.390350199631
 20
1685.591456577164
 10
1630.390350199631
 20
1684.812456577155
 10
1630.390350199631
 20
1684.040456577158
 10
1630.390350199631
 20
1683.274456577159
 10
1630.390350199631
 20
1682.515456577156
 10
1630.390350199631
 20
1681.764456577163
 10
1630.390350199631
 20
1681.021456577163
 10
1630.390350199631
 20
1680.285456577159
 10
1630.390350199631
 20
1679.559456577159
 10
1630.390350199631
 20
1678.841456577153
 10
1630.390350199631
 20
1678.132456577152
 10
1630.390350199631
 20
1677.433456577155
 10
1630.390350199631
 20
1676.744456577161
 10
1630.390350199631
 20
1676.066456577153
 10
1630.390350199631
 20
1675.398456577163
 10
1630.390350199631
 20
1674.741456577159
 10
1630.390350199631
 20
1674.096456577153
  0
LWPOLYLINE
  5
1A7
330
1F
100
AcDbEntity
  8
ST7
100
AcDbPolyline
 90
       33
 70
     0
 43
0.0
 10
1421.29542077254
 20
1232.675011548144
 10
1425.361502469587
 20
1232.678007923742
 10
1429.412388574837
 20
1232.700916795248
 10
1433.419080981192
 20
1232.768439740385
 10
1437.350545762011
 20
1232.902028400191
 10
1441.176160350021
 20
1233.125731262509
 10
1444.862600862326
 20
1233.460060043005
 10
1448.376839708705
 20
1233.927586275338
 10
1451.684174347725
 20
1234.546564816531
 10
1454.747014801279
 20
1235.334943194427
 10
1457.531196758586
 20
1236.306868968851
 10
1460.012930817292
 20
1237.475614069521
 10
1462.204996750634
 20
1238.847488108916
 10
1464.146341900762
 20
1240.403674772635
 10
1465.85690039842
 20
1242.131687948823
 10
1467.374661934709
 20
1244.008479872948
 10
1468.719237049525
 20
1246.006134329306
 10
1469.911637780602
 20
1248.097567357626
 10
1470.969932953854
 20
1250.255265827298
 10
1471.917445294982
 20
1252.449708272871
 10
1472.775007539898
 20
1254.650687140377
 10
1473.565744218204
 20
1256.826691939595
 10
1474.310371002456
 20
1258.94143200693
 10
1475.014768723254
 20
1260.98209902872
 10
1475.681084267157
 20
1262.963197922788
 10
1476.312629523709
 20
1264.90435818616
 10
1476.914206909866
 20
1266.824664325229
 10
1477.487217008877
 20
1268.746861714124
 10
1478.037437021418
 20
1270.692352905582
 10
1478.568847236747
 20
1272.680951058289
 10
1479.084588767101
 20
1274.733069843335
 10
1479.58803566791
 20
1276.870251294969
 10
1480.08707620206
 20
1279.126868849608
  0
LINE
  5
1A8
330
1F
100
AcDbEntity
  8
0
100
AcDbLine
 10
1421.296894611487
 20
1230.675012091194
 30
0.0
 11
1421.296894611487
 21
1297.136012091184
 31
0.0
  0
LWPOLYLINE
  5
1A9
330
1F
100
AcDbEntity
  8
ST6
100
AcDbPolyline
 90
       33
 70
     0
 43
0.0
 10
1507.29522518688
 20
1156.523838733644
 10
1507.177409547257
 20
1155.941305848884
 10
1506.979448928779
 20
1154.962500568691
 10
1506.781527846777
 20
1153.984890375542
 10
1506.583451003389
 20
1153.007511203929
 10
1506.386609470654
 20
1152.033295496303
 10
1506.188768910201
 20
1151.06107900484
 10
1505.991575079851
 20
1150.089123627632
 10
1505.795855804647
 20
1149.122510064461
 10
1505.599339374322
 20
1148.160876364861
 10
1505.40246737016
 20
1147.200500750725
 10
1505.206638410987
 20
1146.245335010889
 10
1505.011015328726
 20
1145.295165754276
 10
1504.815483046472
 20
1144.350425594682
 10
1504.619958426324
 20
1143.411707902862
 10
1504.424275381981
 20
1142.477221527921
 10
1504.229900724346
 20
1141.551200723177
 10
1504.034493660524
 20
1140.631989943438
 10
1503.839974155014
 20
1139.718247035324
 10
1503.645734563143
 20
1138.814783908097
 10
1503.451515344623
 20
1137.918387515015
 10
1503.257366438139
 20
1137.031276357528
 10
1503.063294161737
 20
1136.15247728037
 10
1502.869356810864
 20
1135.284234678855
 10
1502.675455007514
 20
1134.426094902843
 10
1502.481590333569
 20
1133.578061226637
 10
1502.287884819087
 20
1132.740657387188
 10
1502.094289747666
 20
1131.915644544209
 10
1501.900752250251
 20
1131.101794555157
 10
1501.707619680028
 20
1130.301532417882
 10
1501.513357510733
 20
1129.51259013856
 10
1501.32024820929
 20
1128.737182020536
 10
1501.125524824581
 20
1127.972197294955
  0
LINE
  5
1AA
330
1F
100
AcDbEntity
  8
0
100
AcDbLine
 10
1435.524719172463
 20
1080.537838733658
 30
0.0
 11
1435.524719172463
 21
1147.865838733647
 31
0.0
  0
LWPOLYLINE
  5
1AB
330
1F
100
AcDbEntity
  8
ST6
100
AcDbPolyline
 90
       33
 70
     0
 43
0.0
 10
1435.511972178625
 20
1082.537798111783
 10
1440.057308725554
 20
1082.566768388673
 10
1444.572917842054
 20
1082.616609548901
 10
1449.026033619681
 20
1082.709092748384
 10
1453.385215416613
 20
1082.865769437172
 10
1457.617901398805
 20
1083.109867834934
 10
1461.689912134317
 20
1083.462243915023
 10
1465.567953698754
 20
1083.941002391422
 10
1469.216776160488
 20
1084.566959148302
 10
1472.600062702409
 20
1085.357419663648
 10
1475.683192913351
 20
1086.324937097294
 10
1478.438446268881
 20
1087.483417179124
 10
1480.878331437234
 20
1088.836950434149
 10
1483.043058167346
 20
1090.366789375938
 10
1484.96432718382
 20
1092.050796034377
 10
1486.672148626186
 20
1093.869430318393
 10
1488.174752877988
 20
1095.778093253464
 10
1489.526733953774
 20
1097.81078547142
 10
1490.724724420525
 20
1099.8910539491
 10
1491.8015815556
 20
1102.007203435536
 10
1492.779548031788
 20
1104.129536653958
 10
1493.683370561409
 20
1106.231243667867
 10
1494.532267595172
 20
1108.276719017611
 10
1495.333395398111
 20
1110.253759659992
 10
1496.090193793345
 20
1112.175928655987
 10
1496.806160904168
 20
1114.063119206067
 10
1497.48835592448
 20
1115.934226357265
 10
1498.13930383385
 20
1117.81025626239
 10
1498.767434591763
 20
1119.712370093616
 10
1499.3749562079
 20
1121.658999323819
 10
1499.969161148863
 20
1123.671215724379
 10
1500.553296924569
 20
1125.76996031026
 10
1501.137817461293
 20
1127.986764386636
  0
LWPOLYLINE
  5
1AC
330
1F
100
AcDbEntity
  8
EDGES
100
AcDbPolyline
 90
       33
 70
     0
 43
0.0
 10
1435.524719172463
 20
1172.375838733654
 10
1435.524719172463
 20
1171.546838733658
 10
1435.524719172463
 20
1170.718838733645
 10
1435.524719172463
 20
1169.890838733647
 10
1435.524719172463
 20
1169.063838733646
 10
1435.524719172463
 20
1168.238838733654
 10
1435.524719172463
 20
1167.414838733645
 10
1435.524719172463
 20
1166.593838733657
 10
1435.524719172463
 20
1165.774838733651
 10
1435.524719172463
 20
1164.95883873365
 10
1435.524719172463
 20
1164.145838733656
 10
1435.524719172463
 20
1163.336838733652
 10
1435.524719172463
 20
1162.531838733653
 10
1435.524719172463
 20
1161.731838733655
 10
1435.524719172463
 20
1160.935838733646
 10
1435.524719172463
 20
1160.145838733652
 10
1435.524719172463
 20
1159.360838733658
 10
1435.524719172463
 20
1158.581838733649
 10
1435.524719172463
 20
1157.809838733652
 10
1435.524719172463
 20
1157.043838733653
 10
1435.524719172463
 20
1156.284838733651
 10
1435.524719172463
 20
1155.533838733657
 10
1435.524719172463
 20
1154.790838733657
 10
1435.524719172463
 20
1154.054838733653
 10
1435.524719172463
 20
1153.328838733653
 10
1435.524719172463
 20
1152.610838733647
 10
1435.524719172463
 20
1151.901838733647
 10
1435.524719172463
 20
1151.202838733649
 10
1435.524719172463
 20
1150.513838733655
 10
1435.524719172463
 20
1149.835838733648
 10
1435.524719172463
 20
1149.167838733657
 10
1435.524719172463
 20
1148.510838733653
 10
1435.524719172463
 20
1147.865838733647
  0
LWPOLYLINE
  5
1AD
330
1F
100
AcDbEntity
  8
ST7
100
AcDbPolyline
 90
       33
 70
     0
 43
0.0
 10
1485.037346887133
 20
1308.288012091194
 10
1484.92899300918
 20
1307.59855015441
 10
1484.773040474848
 20
1306.59985411728
 10
1484.616111893611
 20
1305.603307649167
 10
1484.459856112689
 20
1304.605674586396
 10
1484.304950986916
 20
1303.611283617764
 10
1484.149247590686
 20
1302.621169713556
 10
1483.993238885348
 20
1301.632114523969
 10
1483.838384747408
 20
1300.647042394925
 10
1483.682581394805
 20
1299.665281525656
 10
1483.527780174682
 20
1298.6885357626
 10
1483.372165940101
 20
1297.715946796497
 10
1483.216262289401
 20
1296.74754527355
 10
1483.061547957856
 20
1295.784323790094
 10
1482.906029020795
 20
1294.829278009963
 10
1482.750353980924
 20
1293.878263183089
 10
1482.594881007833
 20
1292.935459128346
 10
1482.438450035147
 20
1291.998866043481
 10
1482.281917203073
 20
1291.069639295124
 10
1482.125396266245
 20
1290.148458749728
 10
1481.969099702035
 20
1289.236562871918
 10
1481.811824973704
 20
1288.333726298523
 10
1481.654417173968
 20
1287.438095843053
 10
1481.497288293472
 20
1286.553997268624
 10
1481.33922812606
 20
1285.680192946865
 10
1481.181202956734
 20
1284.817514663986
 10
1481.022256392418
 20
1283.965163712816
 10
1480.863392612993
 20
1283.125171479065
 10
1480.703800919255
 20
1282.297475427941
 10
1480.542907841803
 20
1281.480098867749
 10
1480.38334637714
 20
1280.677336219401
 10
1480.222105559238
 20
1279.888937864309
 10
1480.059767704248
 20
1279.10812265988
  0
LWPOLYLINE
  5
1AE
330
1F
100
AcDbEntity
  8
EDGES
100
AcDbPolyline
 90
       33
 70
     0
 43
0.0
 10
1421.296894611487
 20
1321.64601209119
 10
1421.296894611487
 20
1320.817012091194
 10
1421.296894611487
 20
1319.989012091181
 10
1421.296894611487
 20
1319.161012091183
 10
1421.296894611487
 20
1318.334012091182
 10
1421.296894611487
 20
1317.50901209119
 10
1421.296894611487
 20
1316.685012091181
 10
1421.296894611487
 20
1315.864012091194
 10
1421.296894611487
 20
1315.045012091187
 10
1421.296894611487
 20
1314.229012091186
 10
1421.296894611487
 20
1313.416012091193
 10
1421.296894611487
 20
1312.607012091189
 10
1421.296894611487
 20
1311.802012091189
 10
1421.296894611487
 20
1311.002012091191
 10
1421.296894611487
 20
1310.206012091183
 10
1421.296894611487
 20
1309.416012091188
 10
1421.296894611487
 20
1308.631012091194
 10
1421.296894611487
 20
1307.852012091186
 10
1421.296894611487
 20
1307.080012091188
 10
1421.296894611487
 20
1306.314012091189
 10
1421.296894611487
 20
1305.555012091187
 10
1421.296894611487
 20
1304.804012091193
 10
1421.296894611487
 20
1304.061012091193
 10
1421.296894611487
 20
1303.32501209119
 10
1421.296894611487
 20
1302.59901209119
 10
1421.296894611487
 20
1301.881012091183
 10
1421.296894611487
 20
1301.172012091183
 10
1421.296894611487
 20
1300.473012091186
 10
1421.296894611487
 20
1299.784012091191
 10
1421.296894611487
 20
1299.106012091184
 10
1421.296894611487
 20
1298.438012091193
 10
1421.296894611487
 20
1297.781012091189
 10
1421.296894611487
 20
1297.136012091184
  0
LWPOLYLINE
  5
1AF
330
1F
100
AcDbEntity
  8
ST9
100
AcDbPolyline
 90
       35
 70
     0
 43
0.0
 10
1417.610817756681
 20
1509.13968115261
 10
1416.556468941783
 20
1509.147653544399
 10
1415.588686890814
 20
1509.158505330905
 10
1413.549233023975
 20
1509.20089127401
 10
1411.515346481654
 20
1509.283847299006
 10
1409.504668000722
 20
1509.426708756122
 10
1407.535474128216
 20
1509.650697410548
 10
1405.627145008973
 20
1509.975019354456
 10
1403.79682033386
 20
1510.416407054169
 10
1402.066025997599
 20
1510.990311576991
 10
1400.451620769213
 20
1511.713365656122
 10
1398.963873728674
 20
1512.600241316957
 10
1397.604066897966
 20
1513.675417234826
 10
1396.353450807212
 20
1514.966489261004
 10
1395.197205256058
 20
1516.469428376959
 10
1394.136286730963
 20
1518.161014240135
 10
1393.171955199988
 20
1520.010250770923
 10
1392.916810150453
 20
1520.591112905045
 10
1392.301778161822
 20
1521.991107227703
 10
1391.521293409821
 20
1524.069207732922
 10
1390.8216365403
 20
1526.210698924732
 10
1390.194534300116
 20
1528.38413401816
 10
1389.628893675958
 20
1530.555527401975
 10
1389.114950380096
 20
1532.6941628443
 10
1388.641384610401
 20
1534.766756129286
 10
1388.203161281988
 20
1536.764538949899
 10
1387.795868527202
 20
1538.703886689914
 10
1387.415619192221
 20
1540.600182201615
 10
1387.059129600506
 20
1542.474723304726
 10
1386.720277635838
 20
1544.346335472194
 10
1386.396012419403
 20
1546.2324285658
 10
1386.080341731859
 20
1548.152262244187
 10
1385.770176762258
 20
1550.125587451358
 10
1385.458607451421
 20
1552.17119426848
 10
1385.143300077522
 20
1554.309497123767
  0
LWPOLYLINE
  5
1B0
330
1F
100
AcDbEntity
  8
ST10
100
AcDbPolyline
 90
       33
 70
     0
 43
0.0
 10
1418.166014915397
 20
1626.717714022821
 10
1417.265540490682
 20
1626.821729220389
 10
1416.34610449422
 20
1626.935938910967
 10
1415.432794363282
 20
1627.077580159883
 10
1414.540691990009
 20
1627.262335089256
 10
1413.674008729801
 20
1627.509958877894
 10
1412.836834806228
 20
1627.830491019893
 10
1412.035889811906
 20
1628.236976617596
 10
1411.269025426415
 20
1628.747692486701
 10
1410.533288593394
 20
1629.384433513353
 10
1409.824124588686
 20
1630.180021832986
 10
1409.139394264916
 20
1631.17233603538
 10
1408.480947921473
 20
1632.39090073492
 10
1407.856683872084
 20
1633.821049514773
 10
1407.276302199467
 20
1635.430204507164
 10
1406.743034359425
 20
1637.186179323276
 10
1406.257791454321
 20
1639.053979394381
 10
1405.821057842125
 20
1641.004722862186
 10
1405.428309317918
 20
1643.009498911089
 10
1405.075853611432
 20
1645.036855551752
 10
1404.759528447314
 20
1647.057986117245
 10
1404.475642981193
 20
1649.045184380386
 10
1404.217833444048
 20
1650.968840157344
 10
1403.983721884568
 20
1652.825860662832
 10
1403.769416713491
 20
1654.631580160147
 10
1403.571947018015
 20
1656.402853559176
 10
1403.388334137678
 20
1658.156604692031
 10
1403.216389919314
 20
1659.910833278057
 10
1403.050191578184
 20
1661.683283850473
 10
1402.888749582794
 20
1663.490039021238
 10
1402.72599389138
 20
1665.351245209672
 10
1402.559091159089
 20
1667.280121098104
 10
1402.385109848988
 20
1669.295904552887
  0
LINE
  5
1B1
330
1F
100
AcDbEntity
  8
0
100
AcDbLine
 10
1469.193178701746
 20
1458.338465557457
 30
0.0
 11
1365.832902683078
 21
1458.338465557457
 31
0.0
  0
LWPOLYLINE
  5
1B2
330
1F
100
AcDbEntity
  8
GRID
100
AcDbPolyline
 90
        2
 70
     0
 43
0.0
 10
1337.513040692371
 20
1404.523465557471
 10
1497.513040692397
 20
1404.523465557471
  0
LINE
  5
1B3
330
1F
100
AcDbEntity
  8
0
100
AcDbLine
 10
1453.688545837924
 20
1581.441738325472
 30
0.0
 11
1381.502844793387
 21
1581.441738325472
 31
0.0
  0
LWPOLYLINE
  5
1B4
330
1F
100
AcDbEntity
  8
GRID
100
AcDbPolyline
 90
        2
 70
     0
 43
0.0
 10
1337.595695315614
 20
1524.604738325484
 10
1497.59569531564
 20
1524.604738325484
  0
LINE
  5
1B5
330
1F
100
AcDbEntity
  8
0
100
AcDbLine
 10
1435.772232346591
 20
1694.939924883707
 30
0.0
 11
1400.100803293681
 21
1694.939924883707
 31
0.0
  0
LWPOLYLINE
  5
1B6
330
1F
100
AcDbEntity
  8
GRID
100
AcDbPolyline
 90
        2
 70
     0
 43
0.0
 10
1337.936517820095
 20
1634.517924883718
 10
1497.936517820121
 20
1634.517924883718
  0
LWPOLYLINE
  5
1B7
330
1F
100
AcDbEntity
  8
ST8
100
AcDbPolyline
 90
       33
 70
     0
 43
0.0
 10
1365.832902683078
 20
1458.338465557457
 10
1365.928336815008
 20
1457.625987839756
 10
1366.059434654741
 20
1456.64725740274
 10
1366.189381201087
 20
1455.671658716429
 10
1366.320327470358
 20
1454.697058620775
 10
1366.450389442719
 20
1453.723594781158
 10
1366.580299478895
 20
1452.753266741823
 10
1366.71005519024
 20
1451.787085752824
 10
1366.840944524858
 20
1450.822900959731
 10
1366.97093270687
 20
1449.860988412514
 10
1367.100782929554
 20
1448.905091004078
 10
1367.230472209298
 20
1447.953371212816
 10
1367.361278252923
 20
1447.006774805598
 10
1367.491081078656
 20
1446.064206594206
 10
1367.62169489561
 20
1445.128971782401
 10
1367.752447866247
 20
1444.19872927383
 10
1367.88302546543
 20
1443.275715099515
 10
1368.014722857066
 20
1442.358821895681
 10
1368.145413418722
 20
1441.448976153541
 10
1368.276758878542
 20
1440.548463720736
 10
1368.409358028493
 20
1439.654167198172
 10
1368.540946106675
 20
1438.76893830825
 10
1368.673354401153
 20
1437.892853352346
 10
1368.805888868388
 20
1437.024902066947
 10
1368.938179512833
 20
1436.167499544344
 10
1369.071623019328
 20
1435.320033693411
 10
1369.204016841162
 20
1434.481871302581
 10
1369.336979649502
 20
1433.658295698704
 10
1369.471088559639
 20
1432.843708244537
 10
1369.605527901273
 20
1432.039063888679
 10
1369.738498242303
 20
1431.248188054372
 10
1369.873379182488
 20
1430.470639105043
 10
1370.008144943244
 20
1429.699978606501
  0
LWPOLYLINE
  5
1B8
330
1F
100
AcDbEntity
  8
ST9
100
AcDbPolyline
 90
       33
 70
     0
 43
0.0
 10
1381.502844793387
 20
1581.441738325472
 10
1381.58983039866
 20
1580.778922390965
 10
1381.709794202068
 20
1579.857200501304
 10
1381.830757923108
 20
1578.937476341592
 10
1381.950980563095
 20
1578.015769434885
 10
1382.069908493677
 20
1577.099324793212
 10
1382.189835870877
 20
1576.183879147541
 10
1382.308883990519
 20
1575.27050996059
 10
1382.427774188369
 20
1574.360350546668
 10
1382.546786302723
 20
1573.453258213204
 10
1382.66477928049
 20
1572.549312010545
 10
1382.782630170678
 20
1571.651448025036
 10
1382.900622959698
 20
1570.755502779493
 10
1383.017577178758
 20
1569.864851418862
 10
1383.134531437973
 20
1568.979197798148
 10
1383.25046507664
 20
1568.098701800956
 10
1383.366230252387
 20
1567.225473104536
 10
1383.482141236094
 20
1566.357139959277
 10
1383.59702976741
 20
1565.494976459011
 10
1383.711896403062
 20
1564.639969153589
 10
1383.825738631425
 20
1563.792144137066
 10
1383.939578213031
 20
1562.9523275745
 10
1384.052413311047
 20
1562.119544638694
 10
1384.165201025542
 20
1561.295096389778
 10
1384.277124723007
 20
1560.478652989124
 10
1384.387879416805
 20
1559.672438641494
 10
1384.49860388329
 20
1558.875421986373
 10
1384.608319215391
 20
1558.088463831628
 10
1384.718000761733
 20
1557.310721957607
 10
1384.826826470036
 20
1556.542951593596
 10
1384.934435005464
 20
1555.78670271969
 10
1385.042219930149
 20
1555.04119032403
 10
1385.148324803751
 20
1554.303461155402
  0
LWPOLYLINE
  5
1B9
330
1F
100
AcDbEntity
  8
ST10
100
AcDbPolyline
 90
       33
 70
     0
 43
0.0
 10
1402.385267098897
 20
1669.294072795981
 10
1402.326149928718
 20
1669.986445077647
 10
1402.265135296933
 20
1670.689613702774
 10
1402.204104336637
 20
1671.402975582763
 10
1402.141080460451
 20
1672.126249590302
 10
1402.078051074624
 20
1672.860591959026
 10
1402.012883708864
 20
1673.605505078338
 10
1401.946949237566
 20
1674.356758448242
 10
1401.880902447071
 20
1675.118297956766
 10
1401.812833640859
 20
1675.889077085947
 10
1401.744769037665
 20
1676.66681527246
 10
1401.674702462901
 20
1677.453562812018
 10
1401.604729378783
 20
1678.246257892955
 10
1401.533755011823
 20
1679.045969070064
 10
1401.462664507062
 20
1679.853997765135
 10
1401.389562202821
 20
1680.668137126214
 10
1401.31657851061
 20
1681.486954166384
 10
1401.266553455772
 20
1682.045233777873
 10
1401.168640310988
 20
1683.140262417713
 10
1401.094547476987
 20
1683.976309936707
 10
1401.018516613415
 20
1684.81665106
 10
1400.943487986069
 20
1685.659972831588
 10
1400.866457596539
 20
1686.508307511338
 10
1400.790513883261
 20
1687.358677247786
 10
1400.71336170028
 20
1688.21436509565
 10
1400.635304222075
 20
1689.071996618684
 10
1400.557351573493
 20
1689.93047514629
 10
1400.479285625019
 20
1690.793203961768
 10
1400.400314002065
 20
1691.655893969195
 10
1400.322239407265
 20
1692.521721206679
 10
1400.242153152231
 20
1693.388654917151
 10
1400.16326652953
 20
1694.254410636863
 10
1400.100803293681
 20
1694.939924883707
  0
LWPOLYLINE
  5
1BA
330
1F
100
AcDbEntity
  8
ST10
100
AcDbPolyline
 90
       33
 70
     0
 43
0.0
 10
1417.707020724875
 20
1626.717714022821
 10
1418.60749514959
 20
1626.821729220389
 10
1419.526931146051
 20
1626.935938910967
 10
1420.440241276989
 20
1627.077580159883
 10
1421.332343650263
 20
1627.262335089256
 10
1422.199026910471
 20
1627.509958877894
 10
1423.036200834044
 20
1627.830491019893
 10
1423.837145828366
 20
1628.236976617596
 10
1424.604010213857
 20
1628.747692486701
 10
1425.339747046877
 20
1629.384433513353
 10
1426.048911051586
 20
1630.180021832986
 10
1426.733641375356
 20
1631.17233603538
 10
1427.392087718798
 20
1632.39090073492
 10
1428.016351768188
 20
1633.821049514773
 10
1428.596733440804
 20
1635.430204507164
 10
1429.130001280847
 20
1637.186179323276
 10
1429.615244185951
 20
1639.053979394381
 10
1430.051977798147
 20
1641.004722862186
 10
1430.444726322354
 20
1643.009498911089
 10
1430.79718202884
 20
1645.036855551752
 10
1431.113507192958
 20
1647.057986117245
 10
1431.397392659079
 20
1649.045184380386
 10
1431.655202196223
 20
1650.968840157344
 10
1431.889313755704
 20
1652.825860662832
 10
1432.103618926781
 20
1654.631580160147
 10
1432.301088622256
 20
1656.402853559176
 10
1432.484701502594
 20
1658.156604692031
 10
1432.656645720958
 20
1659.910833278057
 10
1432.822844062088
 20
1661.683283850473
 10
1432.984286057478
 20
1663.490039021238
 10
1433.147041748892
 20
1665.351245209672
 10
1433.313944481183
 20
1667.280121098104
 10
1433.487925791284
 20
1669.295904552887
  0
LINE
  5
1BB
330
1F
100
AcDbEntity
  8
0
100
AcDbLine
 10
1417.936517820136
 20
1624.730924883716
 30
0.0
 11
1417.936517820136
 21
1674.507924883708
 31
0.0
  0
LWPOLYLINE
  5
1BC
330
1F
100
AcDbEntity
  8
ST9
100
AcDbPolyline
 90
       35
 70
     0
 43
0.0
 10
1417.58057287463
 20
1509.13968115261
 10
1418.634921689528
 20
1509.147653544399
 10
1419.602703740496
 20
1509.158505330905
 10
1421.642157607335
 20
1509.20089127401
 10
1423.676044149656
 20
1509.283847299006
 10
1425.686722630588
 20
1509.426708756122
 10
1427.655916503094
 20
1509.650697410548
 10
1429.564245622337
 20
1509.975019354456
 10
1431.394570297451
 20
1510.416407054169
 10
1433.125364633711
 20
1510.990311576991
 10
1434.739769862098
 20
1511.713365656122
 10
1436.227516902636
 20
1512.600241316957
 10
1437.587323733344
 20
1513.675417234826
 10
1438.837939824098
 20
1514.966489261004
 10
1439.994185375252
 20
1516.469428376959
 10
1441.055103900348
 20
1518.161014240135
 10
1442.019435431322
 20
1520.010250770923
 10
1442.274580480858
 20
1520.591112905045
 10
1442.889612469488
 20
1521.991107227703
 10
1443.67009722149
 20
1524.069207732922
 10
1444.36975409101
 20
1526.210698924732
 10
1444.996856331194
 20
1528.38413401816
 10
1445.562496955353
 20
1530.555527401975
 10
1446.076440251214
 20
1532.6941628443
 10
1446.550006020909
 20
1534.766756129286
 10
1446.988229349322
 20
1536.764538949899
 10
1447.395522104108
 20
1538.703886689914
 10
1447.775771439089
 20
1540.600182201615
 10
1448.132261030804
 20
1542.474723304726
 10
1448.471112995472
 20
1544.346335472194
 10
1448.795378211907
 20
1546.2324285658
 10
1449.111048899452
 20
1548.152262244187
 10
1449.421213869052
 20
1550.125587451358
 10
1449.732783179889
 20
1552.17119426848
 10
1450.048090553788
 20
1554.309497123767
  0
LINE
  5
1BD
330
1F
100
AcDbEntity
  8
0
100
AcDbLine
 10
1417.595695315655
 20
1507.139738325483
 30
0.0
 11
1417.595695315655
 21
1564.594738325473
 31
0.0
  0
LWPOLYLINE
  5
1BE
330
1F
100
AcDbEntity
  8
EDGES
100
AcDbPolyline
 90
       33
 70
     0
 43
0.0
 10
1417.513040692412
 20
1469.023465557466
 10
1417.513040692412
 20
1468.19446555747
 10
1417.513040692412
 20
1467.366465557457
 10
1417.513040692412
 20
1466.538465557459
 10
1417.513040692412
 20
1465.711465557458
 10
1417.513040692412
 20
1464.886465557466
 10
1417.513040692412
 20
1464.062465557457
 10
1417.513040692412
 20
1463.24146555747
 10
1417.513040692412
 20
1462.422465557462
 10
1417.513040692412
 20
1461.606465557462
 10
1417.513040692412
 20
1460.793465557468
 10
1417.513040692412
 20
1459.984465557464
 10
1417.513040692412
 20
1459.179465557465
 10
1417.513040692412
 20
1458.379465557467
 10
1417.513040692412
 20
1457.583465557459
 10
1417.513040692412
 20
1456.793465557463
 10
1417.513040692412
 20
1456.00846555747
 10
1417.513040692412
 20
1455.229465557462
 10
1417.513040692412
 20
1454.457465557464
 10
1417.513040692412
 20
1453.691465557465
 10
1417.513040692412
 20
1452.932465557463
 10
1417.513040692412
 20
1452.181465557469
 10
1417.513040692412
 20
1451.438465557469
 10
1417.513040692412
 20
1450.702465557466
 10
1417.513040692412
 20
1449.976465557466
 10
1417.513040692412
 20
1449.25846555746
 10
1417.513040692412
 20
1448.549465557459
 10
1417.513040692412
 20
1447.850465557461
 10
1417.513040692412
 20
1447.161465557468
 10
1417.513040692412
 20
1446.483465557459
 10
1417.513040692412
 20
1445.815465557469
 10
1417.513040692412
 20
1445.158465557466
 10
1417.513040692412
 20
1444.51346555746
  0
LWPOLYLINE
  5
1BF
330
1F
100
AcDbEntity
  8
ST8
100
AcDbPolyline
 90
       33
 70
     0
 43
0.0
 10
1469.193178701746
 20
1458.338465557457
 10
1469.097744569817
 20
1457.625987839756
 10
1468.966646730083
 20
1456.64725740274
 10
1468.836700183737
 20
1455.671658716429
 10
1468.705753914466
 20
1454.697058620775
 10
1468.575691942105
 20
1453.723594781158
 10
1468.44578190593
 20
1452.753266741823
 10
1468.316026194584
 20
1451.787085752824
 10
1468.185136859966
 20
1450.822900959731
 10
1468.055148677954
 20
1449.860988412514
 10
1467.92529845527
 20
1448.905091004078
 10
1467.795609175526
 20
1447.953371212816
 10
1467.664803131902
 20
1447.006774805598
 10
1467.535000306168
 20
1446.064206594206
 10
1467.404386489215
 20
1445.128971782401
 10
1467.273633518578
 20
1444.19872927383
 10
1467.143055919395
 20
1443.275715099515
 10
1467.011358527758
 20
1442.358821895681
 10
1466.880667966103
 20
1441.448976153541
 10
1466.749322506283
 20
1440.548463720736
 10
1466.616723356332
 20
1439.654167198172
 10
1466.485135278149
 20
1438.76893830825
 10
1466.352726983672
 20
1437.892853352346
 10
1466.220192516436
 20
1437.024902066947
 10
1466.087901871992
 20
1436.167499544344
 10
1465.954458365496
 20
1435.320033693411
 10
1465.822064543662
 20
1434.481871302581
 10
1465.689101735322
 20
1433.658295698704
 10
1465.554992825185
 20
1432.843708244537
 10
1465.420553483551
 20
1432.039063888679
 10
1465.287583142522
 20
1431.248188054372
 10
1465.152702202336
 20
1430.470639105043
 10
1465.01793644158
 20
1429.699978606501
  0
LWPOLYLINE
  5
1C0
330
1F
100
AcDbEntity
  8
ST9
100
AcDbPolyline
 90
       33
 70
     0
 43
0.0
 10
1453.688545837924
 20
1581.441738325472
 10
1453.60156023265
 20
1580.778922390965
 10
1453.481596429243
 20
1579.857200501304
 10
1453.360632708203
 20
1578.937476341592
 10
1453.240410068215
 20
1578.015769434885
 10
1453.121482137633
 20
1577.099324793212
 10
1453.001554760433
 20
1576.183879147541
 10
1452.882506640792
 20
1575.27050996059
 10
1452.763616442941
 20
1574.360350546668
 10
1452.644604328587
 20
1573.453258213204
 10
1452.526611350821
 20
1572.549312010545
 10
1452.408760460633
 20
1571.651448025036
 10
1452.290767671613
 20
1570.755502779493
 10
1452.173813452552
 20
1569.864851418862
 10
1452.056859193337
 20
1568.979197798148
 10
1451.94092555467
 20
1568.098701800956
 10
1451.825160378924
 20
1567.225473104536
 10
1451.709249395216
 20
1566.357139959277
 10
1451.594360863901
 20
1565.494976459011
 10
1451.479494228248
 20
1564.639969153589
 10
1451.365651999885
 20
1563.792144137066
 10
1451.251812418279
 20
1562.9523275745
 10
1451.138977320263
 20
1562.119544638694
 10
1451.026189605768
 20
1561.295096389778
 10
1450.914265908304
 20
1560.478652989124
 10
1450.803511214505
 20
1559.672438641494
 10
1450.69278674802
 20
1558.875421986373
 10
1450.583071415919
 20
1558.088463831628
 10
1450.473389869578
 20
1557.310721957607
 10
1450.364564161274
 20
1556.542951593596
 10
1450.256955625846
 20
1555.78670271969
 10
1450.149170701161
 20
1555.04119032403
 10
1450.043065827559
 20
1554.303461155402
  0
LWPOLYLINE
  5
1C1
330
1F
100
AcDbEntity
  8
EDGES
100
AcDbPolyline
 90
       33
 70
     0
 43
0.0
 10
1417.595695315655
 20
1589.10473832548
 10
1417.595695315655
 20
1588.275738325484
 10
1417.595695315655
 20
1587.447738325471
 10
1417.595695315655
 20
1586.619738325472
 10
1417.595695315655
 20
1585.792738325472
 10
1417.595695315655
 20
1584.96773832548
 10
1417.595695315655
 20
1584.143738325471
 10
1417.595695315655
 20
1583.322738325483
 10
1417.595695315655
 20
1582.503738325477
 10
1417.595695315655
 20
1581.687738325476
 10
1417.595695315655
 20
1580.874738325482
 10
1417.595695315655
 20
1580.065738325478
 10
1417.595695315655
 20
1579.260738325479
 10
1417.595695315655
 20
1578.46073832548
 10
1417.595695315655
 20
1577.664738325472
 10
1417.595695315655
 20
1576.874738325478
 10
1417.595695315655
 20
1576.089738325484
 10
1417.595695315655
 20
1575.310738325475
 10
1417.595695315655
 20
1574.538738325478
 10
1417.595695315655
 20
1573.772738325479
 10
1417.595695315655
 20
1573.013738325477
 10
1417.595695315655
 20
1572.262738325483
 10
1417.595695315655
 20
1571.519738325483
 10
1417.595695315655
 20
1570.783738325479
 10
1417.595695315655
 20
1570.057738325479
 10
1417.595695315655
 20
1569.339738325473
 10
1417.595695315655
 20
1568.630738325472
 10
1417.595695315655
 20
1567.931738325475
 10
1417.595695315655
 20
1567.242738325481
 10
1417.595695315655
 20
1566.564738325473
 10
1417.595695315655
 20
1565.896738325483
 10
1417.595695315655
 20
1565.239738325479
 10
1417.595695315655
 20
1564.594738325473
  0
LWPOLYLINE
  5
1C2
330
1F
100
AcDbEntity
  8
EDGES
100
AcDbPolyline
 90
       33
 70
     0
 43
0.0
 10
1417.936517820136
 20
1699.017924883714
 10
1417.936517820136
 20
1698.188924883718
 10
1417.936517820136
 20
1697.360924883705
 10
1417.936517820136
 20
1696.532924883707
 10
1417.936517820136
 20
1695.705924883706
 10
1417.936517820136
 20
1694.880924883714
 10
1417.936517820136
 20
1694.056924883705
 10
1417.936517820136
 20
1693.235924883717
 10
1417.936517820136
 20
1692.416924883711
 10
1417.936517820136
 20
1691.60092488371
 10
1417.936517820136
 20
1690.787924883716
 10
1417.936517820136
 20
1689.978924883713
 10
1417.936517820136
 20
1689.173924883713
 10
1417.936517820136
 20
1688.373924883714
 10
1417.936517820136
 20
1687.577924883707
 10
1417.936517820136
 20
1686.787924883712
 10
1417.936517820136
 20
1686.002924883718
 10
1417.936517820136
 20
1685.223924883709
 10
1417.936517820136
 20
1684.451924883711
 10
1417.936517820136
 20
1683.685924883713
 10
1417.936517820136
 20
1682.926924883711
 10
1417.936517820136
 20
1682.175924883717
 10
1417.936517820136
 20
1681.432924883717
 10
1417.936517820136
 20
1680.696924883714
 10
1417.936517820136
 20
1679.970924883713
 10
1417.936517820136
 20
1679.252924883707
 10
1417.936517820136
 20
1678.543924883707
 10
1417.936517820136
 20
1677.844924883709
 10
1417.936517820136
 20
1677.155924883715
 10
1417.936517820136
 20
1676.477924883708
 10
1417.936517820136
 20
1675.809924883717
 10
1417.936517820136
 20
1675.152924883713
 10
1417.936517820136
 20
1674.507924883707
  0
LWPOLYLINE
  5
1C3
330
1F
100
AcDbEntity
  8
ST10
100
AcDbPolyline
 90
       33
 70
     0
 43
0.0
 10
1433.487768541375
 20
1669.294072795981
 10
1433.546885711554
 20
1669.986445077647
 10
1433.607900343339
 20
1670.689613702774
 10
1433.668931303635
 20
1671.402975582763
 10
1433.731955179822
 20
1672.126249590302
 10
1433.794984565648
 20
1672.860591959026
 10
1433.860151931408
 20
1673.605505078338
 10
1433.926086402706
 20
1674.356758448242
 10
1433.9921331932
 20
1675.118297956766
 10
1434.060201999412
 20
1675.889077085947
 10
1434.128266602607
 20
1676.66681527246
 10
1434.198333177371
 20
1677.453562812018
 10
1434.268306261489
 20
1678.246257892955
 10
1434.339280628449
 20
1679.045969070064
 10
1434.41037113321
 20
1679.853997765135
 10
1434.483473437451
 20
1680.668137126214
 10
1434.556457129662
 20
1681.486954166384
 10
1434.6064821845
 20
1682.045233777873
 10
1434.704395329284
 20
1683.140262417713
 10
1434.778488163285
 20
1683.976309936707
 10
1434.854519026857
 20
1684.81665106
 10
1434.929547654204
 20
1685.659972831588
 10
1435.006578043733
 20
1686.508307511338
 10
1435.082521757011
 20
1687.358677247786
 10
1435.159673939992
 20
1688.21436509565
 10
1435.237731418197
 20
1689.071996618684
 10
1435.315684066779
 20
1689.93047514629
 10
1435.393750015253
 20
1690.793203961768
 10
1435.472721638207
 20
1691.655893969195
 10
1435.550796233007
 20
1692.521721206679
 10
1435.630882488041
 20
1693.388654917151
 10
1435.709769110742
 20
1694.254410636863
 10
1435.772232346591
 20
1694.939924883707
  0
LINE
  5
3BE
330
1F
100
AcDbEntity
  8
EDGES
100
AcDbLine
 10
891.3822172684442
 20
1909.344568359533
 30
0.0
 11
873.6952172684206
 21
1908.762568359538
 31
0.0
  0
LINE
  5
3BF
330
1F
100
AcDbEntity
  8
EDGES
100
AcDbLine
 10
884.3172172684328
 20
1835.461568359538
 30
0.0
 11
903.5242172684272
 21
1834.738568359544
 31
0.0
  0
LINE
  5
3C0
330
1F
100
AcDbEntity
  8
EDGES
100
AcDbLine
 10
884.3172172684328
 20
1835.461568359538
 30
0.0
 11
903.5242172684272
 21
1834.738568359544
 31
0.0
  0
LINE
  5
3C1
330
1F
100
AcDbEntity
  8
EDGES
100
AcDbLine
 10
891.3822172684442
 20
1909.344568359533
 30
0.0
 11
873.6952172684206
 21
1908.762568359538
 31
0.0
  0
LINE
  5
3CE
330
1F
100
AcDbEntity
  8
EDGES
100
AcDbLine
 10
674.7092172684299
 20
1842.837568359532
 30
0.0
 11
676.3932172684414
 21
1842.79456835954
 31
0.0
  0
LINE
  5
3CF
330
1F
100
AcDbEntity
  8
EDGES
100
AcDbLine
 10
674.7092172684299
 20
1842.837568359532
 30
0.0
 11
676.3932172684414
 21
1842.79456835954
 31
0.0
  0
LINE
  5
3D0
330
1F
100
AcDbEntity
  8
EDGES
100
AcDbLine
 10
679.8982172684597
 20
1892.148568359534
 30
0.0
 11
676.2502172684614
 21
1891.661568359542
 31
0.0
  0
LINE
  5
3D1
330
1F
100
AcDbEntity
  8
EDGES
100
AcDbLine
 10
679.8982172684597
 20
1892.148568359534
 30
0.0
 11
676.2502172684614
 21
1891.661568359542
 31
0.0
  0
LINE
  5
3E7
330
1F
100
AcDbEntity
  8
0
100
AcDbLine
 10
664.9442172684709
 20
1890.106404504805
 30
0.0
 11
664.9442172684709
 21
1843.079568359532
 31
0.0
  0
LINE
  5
3EC
330
1F
100
AcDbEntity
  8
EDGES
100
AcDbLine
 10
625.3962172684461
 20
1884.195568359534
 30
0.0
 11
622.184217268427
 21
1883.689568359532
 31
0.0
  0
LINE
  5
3ED
330
1F
100
AcDbEntity
  8
EDGES
100
AcDbLine
 10
625.3962172684461
 20
1884.195568359534
 30
0.0
 11
622.184217268427
 21
1883.689568359532
 31
0.0
  0
LINE
  5
3EE
330
1F
100
AcDbEntity
  8
EDGES
100
AcDbLine
 10
603.1072172684455
 20
1880.647568359539
 30
0.0
 11
599.9442172684732
 21
1880.139568359543
 31
0.0
  0
LINE
  5
3EF
330
1F
100
AcDbEntity
  8
EDGES
100
AcDbLine
 10
603.1072172684455
 20
1880.647568359539
 30
0.0
 11
599.9442172684732
 21
1880.139568359543
 31
0.0
  0
LINE
  5
408
330
1F
100
AcDbEntity
  8
EDGES
100
AcDbLine
 10
622.184217268427
 20
1883.689568359532
 30
0.0
 11
618.9842172684345
 21
1883.183568359531
 31
0.0
  0
LINE
  5
409
330
1F
100
AcDbEntity
  8
EDGES
100
AcDbLine
 10
618.9842172684345
 20
1883.183568359531
 30
0.0
 11
615.795217268471
 21
1882.677568359544
 31
0.0
  0
LINE
  5
40A
330
1F
100
AcDbEntity
  8
EDGES
100
AcDbLine
 10
615.795217268471
 20
1882.677568359544
 30
0.0
 11
612.615217268428
 21
1882.170568359531
 31
0.0
  0
LINE
  5
40B
330
1F
100
AcDbEntity
  8
EDGES
100
AcDbLine
 10
612.615217268428
 20
1882.170568359531
 30
0.0
 11
609.4412172684267
 21
1881.663568359531
 31
0.0
  0
LINE
  5
40C
330
1F
100
AcDbEntity
  8
EDGES
100
AcDbLine
 10
609.4412172684267
 20
1881.663568359531
 30
0.0
 11
606.2722172684695
 21
1881.155568359536
 31
0.0
  0
LINE
  5
40D
330
1F
100
AcDbEntity
  8
EDGES
100
AcDbLine
 10
606.2722172684695
 20
1881.155568359536
 30
0.0
 11
603.1072172684455
 21
1880.647568359539
 31
0.0
  0
LINE
  5
40E
330
1F
100
AcDbEntity
  8
EDGES
100
AcDbLine
 10
622.184217268427
 20
1883.689568359532
 30
0.0
 11
618.9842172684345
 21
1883.183568359531
 31
0.0
  0
LINE
  5
40F
330
1F
100
AcDbEntity
  8
EDGES
100
AcDbLine
 10
618.9842172684345
 20
1883.183568359531
 30
0.0
 11
615.795217268471
 21
1882.677568359544
 31
0.0
  0
LINE
  5
410
330
1F
100
AcDbEntity
  8
EDGES
100
AcDbLine
 10
615.795217268471
 20
1882.677568359544
 30
0.0
 11
612.615217268428
 21
1882.170568359531
 31
0.0
  0
LINE
  5
411
330
1F
100
AcDbEntity
  8
EDGES
100
AcDbLine
 10
612.615217268428
 20
1882.170568359531
 30
0.0
 11
609.4412172684267
 21
1881.663568359531
 31
0.0
  0
LINE
  5
412
330
1F
100
AcDbEntity
  8
EDGES
100
AcDbLine
 10
609.4412172684267
 20
1881.663568359531
 30
0.0
 11
606.2722172684695
 21
1881.155568359536
 31
0.0
  0
LINE
  5
413
330
1F
100
AcDbEntity
  8
EDGES
100
AcDbLine
 10
606.2722172684695
 20
1881.155568359536
 30
0.0
 11
603.1072172684455
 21
1880.647568359539
 31
0.0
  0
LINE
  5
422
330
1F
100
AcDbEntity
  8
EDGES
100
AcDbLine
 10
599.9442172684732
 20
1880.139568359543
 30
0.0
 11
599.9442172684732
 21
1880.139568359543
 31
0.0
  0
LINE
  5
423
330
1F
100
AcDbEntity
  8
EDGES
100
AcDbLine
 10
599.9442172684732
 20
1880.139568359543
 30
0.0
 11
599.9442172684732
 21
1880.137568359534
 31
0.0
  0
LINE
  5
424
330
1F
100
AcDbEntity
  8
EDGES
100
AcDbLine
 10
599.9442172684732
 20
1880.139568359543
 30
0.0
 11
599.9442172684732
 21
1880.139568359543
 31
0.0
  0
LINE
  5
425
330
1F
100
AcDbEntity
  8
EDGES
100
AcDbLine
 10
599.9442172684732
 20
1880.139568359543
 30
0.0
 11
599.9442172684732
 21
1880.137568359534
 31
0.0
  0
LINE
  5
426
330
1F
100
AcDbEntity
  8
0
 62
     4
100
AcDbLine
 10
599.9442172684732
 20
1880.137568359534
 30
0.0
 11
599.9442172684732
 21
1843.079568359535
 31
0.0
  0
LINE
  5
429
330
1F
100
AcDbEntity
  8
EDGES
100
AcDbLine
 10
651.7472172684231
 20
1888.209568359532
 30
0.0
 11
648.3732172684719
 21
1887.711568359538
 31
0.0
  0
LINE
  5
42A
330
1F
100
AcDbEntity
  8
EDGES
100
AcDbLine
 10
651.7472172684231
 20
1888.209568359532
 30
0.0
 11
648.3732172684719
 21
1887.711568359538
 31
0.0
  0
LINE
  5
437
330
1F
100
AcDbEntity
  8
EDGES
100
AcDbLine
 10
641.7022172684321
 20
1886.711568359534
 30
0.0
 11
638.4032172684621
 21
1886.209568359536
 31
0.0
  0
LINE
  5
438
330
1F
100
AcDbEntity
  8
EDGES
100
AcDbLine
 10
638.4032172684621
 20
1886.209568359536
 30
0.0
 11
635.1242172684417
 21
1885.707568359539
 31
0.0
  0
LINE
  5
439
330
1F
100
AcDbEntity
  8
EDGES
100
AcDbLine
 10
635.1242172684417
 20
1885.707568359539
 30
0.0
 11
631.8642172684301
 21
1885.203568359533
 31
0.0
  0
LINE
  5
43A
330
1F
100
AcDbEntity
  8
EDGES
100
AcDbLine
 10
631.8642172684301
 20
1885.203568359533
 30
0.0
 11
628.6222172684299
 21
1884.69956835954
 31
0.0
  0
LINE
  5
43B
330
1F
100
AcDbEntity
  8
EDGES
100
AcDbLine
 10
628.6222172684299
 20
1884.69956835954
 30
0.0
 11
625.3962172684461
 21
1884.195568359534
 31
0.0
  0
LINE
  5
43C
330
1F
100
AcDbEntity
  8
EDGES
100
AcDbLine
 10
641.7022172684321
 20
1886.711568359534
 30
0.0
 11
638.4032172684621
 21
1886.209568359536
 31
0.0
  0
LINE
  5
43D
330
1F
100
AcDbEntity
  8
EDGES
100
AcDbLine
 10
638.4032172684621
 20
1886.209568359536
 30
0.0
 11
635.1242172684417
 21
1885.707568359539
 31
0.0
  0
LINE
  5
43E
330
1F
100
AcDbEntity
  8
EDGES
100
AcDbLine
 10
635.1242172684417
 20
1885.707568359539
 30
0.0
 11
631.8642172684301
 21
1885.203568359533
 31
0.0
  0
LINE
  5
43F
330
1F
100
AcDbEntity
  8
EDGES
100
AcDbLine
 10
631.8642172684301
 20
1885.203568359533
 30
0.0
 11
628.6222172684299
 21
1884.69956835954
 31
0.0
  0
LINE
  5
440
330
1F
100
AcDbEntity
  8
EDGES
100
AcDbLine
 10
628.6222172684299
 20
1884.69956835954
 30
0.0
 11
625.3962172684461
 21
1884.195568359534
 31
0.0
  0
LINE
  5
459
330
1F
100
AcDbEntity
  8
EDGES
100
AcDbLine
 10
648.3732172684719
 20
1887.711568359538
 30
0.0
 11
645.0252172684551
 21
1887.211568359536
 31
0.0
  0
LINE
  5
45A
330
1F
100
AcDbEntity
  8
EDGES
100
AcDbLine
 10
648.3732172684719
 20
1887.711568359538
 30
0.0
 11
645.0252172684551
 21
1887.211568359536
 31
0.0
  0
LINE
  5
45D
330
1F
100
AcDbEntity
  8
EDGES
100
AcDbLine
 10
645.0252172684551
 20
1887.211568359536
 30
0.0
 11
641.7022172684321
 21
1886.711568359534
 31
0.0
  0
LINE
  5
45E
330
1F
100
AcDbEntity
  8
EDGES
100
AcDbLine
 10
645.0252172684551
 20
1887.211568359536
 30
0.0
 11
641.7022172684321
 21
1886.711568359534
 31
0.0
  0
LINE
  5
45F
330
1F
100
AcDbEntity
  8
EDGES
100
AcDbLine
 10
676.2502172684614
 20
1891.661568359542
 30
0.0
 11
672.6422172684758
 21
1891.17256835954
 31
0.0
  0
LINE
  5
460
330
1F
100
AcDbEntity
  8
EDGES
100
AcDbLine
 10
672.6422172684758
 20
1891.17256835954
 30
0.0
 11
669.0732172684485
 21
1890.682568359541
 31
0.0
  0
LINE
  5
461
330
1F
100
AcDbEntity
  8
EDGES
100
AcDbLine
 10
669.0732172684485
 20
1890.682568359541
 30
0.0
 11
665.5412172684416
 21
1890.190568359532
 31
0.0
  0
LINE
  5
462
330
1F
100
AcDbEntity
  8
EDGES
100
AcDbLine
 10
665.5412172684416
 20
1890.190568359532
 30
0.0
 11
662.0442172684599
 21
1889.697568359541
 31
0.0
  0
LINE
  5
463
330
1F
100
AcDbEntity
  8
EDGES
100
AcDbLine
 10
662.0442172684599
 20
1889.697568359541
 30
0.0
 11
658.5812172684493
 21
1889.20256835954
 31
0.0
  0
LINE
  5
464
330
1F
100
AcDbEntity
  8
EDGES
100
AcDbLine
 10
658.5812172684493
 20
1889.20256835954
 30
0.0
 11
655.149217268474
 21
1888.706568359542
 31
0.0
  0
LINE
  5
465
330
1F
100
AcDbEntity
  8
EDGES
100
AcDbLine
 10
655.149217268474
 20
1888.706568359542
 30
0.0
 11
651.7472172684231
 21
1888.209568359532
 31
0.0
  0
LINE
  5
466
330
1F
100
AcDbEntity
  8
EDGES
100
AcDbLine
 10
676.2502172684614
 20
1891.661568359542
 30
0.0
 11
672.6422172684758
 21
1891.17256835954
 31
0.0
  0
LINE
  5
467
330
1F
100
AcDbEntity
  8
EDGES
100
AcDbLine
 10
672.6422172684758
 20
1891.17256835954
 30
0.0
 11
669.0732172684485
 21
1890.682568359541
 31
0.0
  0
LINE
  5
468
330
1F
100
AcDbEntity
  8
EDGES
100
AcDbLine
 10
669.0732172684485
 20
1890.682568359541
 30
0.0
 11
665.5412172684416
 21
1890.190568359532
 31
0.0
  0
LINE
  5
469
330
1F
100
AcDbEntity
  8
EDGES
100
AcDbLine
 10
665.5412172684416
 20
1890.190568359532
 30
0.0
 11
662.0442172684599
 21
1889.697568359541
 31
0.0
  0
LINE
  5
46A
330
1F
100
AcDbEntity
  8
EDGES
100
AcDbLine
 10
662.0442172684599
 20
1889.697568359541
 30
0.0
 11
658.5812172684493
 21
1889.20256835954
 31
0.0
  0
LINE
  5
46B
330
1F
100
AcDbEntity
  8
EDGES
100
AcDbLine
 10
658.5812172684493
 20
1889.20256835954
 30
0.0
 11
655.149217268474
 21
1888.706568359542
 31
0.0
  0
LINE
  5
46C
330
1F
100
AcDbEntity
  8
EDGES
100
AcDbLine
 10
655.149217268474
 20
1888.706568359542
 30
0.0
 11
651.7472172684231
 21
1888.209568359532
 31
0.0
  0
LINE
  5
472
330
1F
100
AcDbEntity
  8
EDGES
100
AcDbLine
 10
664.9442172684709
 20
1843.079568359532
 30
0.0
 11
666.550217268452
 21
1843.040568359531
 31
0.0
  0
LINE
  5
473
330
1F
100
AcDbEntity
  8
EDGES
100
AcDbLine
 10
666.550217268452
 20
1843.040568359531
 30
0.0
 11
668.1592172684256
 21
1843.000568359532
 31
0.0
  0
LINE
  5
474
330
1F
100
AcDbEntity
  8
EDGES
100
AcDbLine
 10
668.1592172684256
 20
1843.000568359532
 30
0.0
 11
669.7762172684358
 21
1842.960568359533
 31
0.0
  0
LINE
  5
475
330
1F
100
AcDbEntity
  8
EDGES
100
AcDbLine
 10
669.7762172684358
 20
1842.960568359533
 30
0.0
 11
671.4042172684751
 21
1842.920568359535
 31
0.0
  0
LINE
  5
476
330
1F
100
AcDbEntity
  8
EDGES
100
AcDbLine
 10
671.4042172684751
 20
1842.920568359535
 30
0.0
 11
673.0472172684764
 21
1842.879568359539
 31
0.0
  0
LINE
  5
477
330
1F
100
AcDbEntity
  8
EDGES
100
AcDbLine
 10
673.0472172684764
 20
1842.879568359539
 30
0.0
 11
674.7092172684299
 21
1842.837568359532
 31
0.0
  0
LINE
  5
478
330
1F
100
AcDbEntity
  8
EDGES
100
AcDbLine
 10
664.9442172684709
 20
1843.079568359532
 30
0.0
 11
666.550217268452
 21
1843.040568359531
 31
0.0
  0
LINE
  5
479
330
1F
100
AcDbEntity
  8
EDGES
100
AcDbLine
 10
666.550217268452
 20
1843.040568359531
 30
0.0
 11
668.1592172684256
 21
1843.000568359532
 31
0.0
  0
LINE
  5
47B
330
1F
100
AcDbEntity
  8
EDGES
100
AcDbLine
 10
669.7762172684358
 20
1842.960568359533
 30
0.0
 11
671.4042172684751
 21
1842.920568359535
 31
0.0
  0
LINE
  5
47C
330
1F
100
AcDbEntity
  8
EDGES
100
AcDbLine
 10
671.4042172684751
 20
1842.920568359535
 30
0.0
 11
673.0472172684764
 21
1842.879568359539
 31
0.0
  0
LINE
  5
47D
330
1F
100
AcDbEntity
  8
EDGES
100
AcDbLine
 10
673.0472172684764
 20
1842.879568359539
 30
0.0
 11
674.7092172684299
 21
1842.837568359532
 31
0.0
  0
LINE
  5
47E
330
1F
100
AcDbEntity
  8
EDGES
100
AcDbLine
 10
768.3582172684575
 20
1839.800568359539
 30
0.0
 11
786.2582172684549
 21
1839.142568359538
 31
0.0
  0
LINE
  5
47F
330
1F
100
AcDbEntity
  8
EDGES
100
AcDbLine
 10
768.3582172684575
 20
1839.800568359539
 30
0.0
 11
786.2582172684549
 21
1839.142568359538
 31
0.0
  0
LINE
  5
480
330
1F
100
AcDbEntity
  8
EDGES
100
AcDbLine
 10
781.2012172684328
 20
1902.970568359539
 30
0.0
 11
762.8082172684296
 21
1901.355568359538
 31
0.0
  0
LINE
  5
481
330
1F
100
AcDbEntity
  8
EDGES
100
AcDbLine
 10
781.2012172684328
 20
1902.970568359539
 30
0.0
 11
762.8082172684296
 21
1901.355568359538
 31
0.0
  0
LINE
  5
482
330
1F
100
AcDbEntity
  8
EDGES
100
AcDbLine
 10
744.8262172684687
 20
1899.637568359541
 30
0.0
 11
727.4182172684229
 21
1897.838568359536
 31
0.0
  0
LINE
  5
483
330
1F
100
AcDbEntity
  8
EDGES
100
AcDbLine
 10
744.8262172684687
 20
1899.637568359541
 30
0.0
 11
727.4182172684229
 21
1897.838568359536
 31
0.0
  0
LINE
  5
484
330
1F
100
AcDbEntity
  8
EDGES
100
AcDbLine
 10
702.7312172684512
 20
1895.03356835954
 30
0.0
 11
698.8052172684726
 21
1894.557568359534
 31
0.0
  0
LINE
  5
485
330
1F
100
AcDbEntity
  8
EDGES
100
AcDbLine
 10
702.7312172684512
 20
1895.03356835954
 30
0.0
 11
698.8052172684726
 21
1894.557568359534
 31
0.0
  0
LINE
  5
486
330
1F
100
AcDbEntity
  8
EDGES
100
AcDbLine
 10
694.9292172684247
 20
1894.079568359534
 30
0.0
 11
691.1022172684235
 21
1893.599568359538
 31
0.0
  0
LINE
  5
487
330
1F
100
AcDbEntity
  8
EDGES
100
AcDbLine
 10
691.1022172684235
 20
1893.599568359538
 30
0.0
 11
687.3222172684743
 21
1893.118568359544
 31
0.0
  0
LINE
  5
488
330
1F
100
AcDbEntity
  8
EDGES
100
AcDbLine
 10
687.3222172684743
 20
1893.118568359544
 30
0.0
 11
683.5882172684657
 21
1892.634568359544
 31
0.0
  0
LINE
  5
489
330
1F
100
AcDbEntity
  8
EDGES
100
AcDbLine
 10
683.5882172684657
 20
1892.634568359544
 30
0.0
 11
679.8982172684597
 21
1892.148568359534
 31
0.0
  0
LINE
  5
48A
330
1F
100
AcDbEntity
  8
EDGES
100
AcDbLine
 10
694.9292172684247
 20
1894.079568359534
 30
0.0
 11
691.1022172684235
 21
1893.599568359538
 31
0.0
  0
LINE
  5
48B
330
1F
100
AcDbEntity
  8
EDGES
100
AcDbLine
 10
691.1022172684235
 20
1893.599568359538
 30
0.0
 11
687.3222172684743
 21
1893.118568359544
 31
0.0
  0
LINE
  5
48C
330
1F
100
AcDbEntity
  8
EDGES
100
AcDbLine
 10
687.3222172684743
 20
1893.118568359544
 30
0.0
 11
683.5882172684657
 21
1892.634568359544
 31
0.0
  0
LINE
  5
48D
330
1F
100
AcDbEntity
  8
EDGES
100
AcDbLine
 10
683.5882172684657
 20
1892.634568359544
 30
0.0
 11
679.8982172684597
 21
1892.148568359534
 31
0.0
  0
LINE
  5
48E
330
1F
100
AcDbEntity
  8
EDGES
100
AcDbLine
 10
698.8052172684726
 20
1894.557568359534
 30
0.0
 11
694.9292172684247
 21
1894.079568359534
 31
0.0
  0
LINE
  5
48F
330
1F
100
AcDbEntity
  8
EDGES
100
AcDbLine
 10
698.8052172684726
 20
1894.557568359534
 30
0.0
 11
694.9292172684247
 21
1894.079568359534
 31
0.0
  0
LINE
  5
490
330
1F
100
AcDbEntity
  8
EDGES
100
AcDbLine
 10
727.4182172684229
 20
1897.838568359536
 30
0.0
 11
710.7442172684566
 21
1895.979568359539
 31
0.0
  0
LINE
  5
491
330
1F
100
AcDbEntity
  8
EDGES
100
AcDbLine
 10
727.4182172684229
 20
1897.838568359536
 30
0.0
 11
710.7442172684566
 21
1895.979568359539
 31
0.0
  0
LINE
  5
492
330
1F
100
AcDbEntity
  8
EDGES
100
AcDbLine
 10
710.7442172684566
 20
1895.979568359539
 30
0.0
 11
706.7112172684639
 21
1895.507568359537
 31
0.0
  0
LINE
  5
493
330
1F
100
AcDbEntity
  8
EDGES
100
AcDbLine
 10
706.7112172684639
 20
1895.507568359537
 30
0.0
 11
702.7312172684512
 21
1895.03356835954
 31
0.0
  0
LINE
  5
494
330
1F
100
AcDbEntity
  8
EDGES
100
AcDbLine
 10
710.7442172684566
 20
1895.979568359539
 30
0.0
 11
706.7112172684639
 21
1895.507568359537
 31
0.0
  0
LINE
  5
495
330
1F
100
AcDbEntity
  8
EDGES
100
AcDbLine
 10
706.7112172684639
 20
1895.507568359537
 30
0.0
 11
702.7312172684512
 21
1895.03356835954
 31
0.0
  0
LINE
  5
496
330
1F
100
AcDbEntity
  8
EDGES
100
AcDbLine
 10
762.8082172684296
 20
1901.355568359538
 30
0.0
 11
744.8262172684687
 21
1899.637568359541
 31
0.0
  0
LINE
  5
497
330
1F
100
AcDbEntity
  8
EDGES
100
AcDbLine
 10
762.8082172684296
 20
1901.355568359538
 30
0.0
 11
744.8262172684687
 21
1899.637568359541
 31
0.0
  0
LINE
  5
498
330
1F
100
AcDbEntity
  8
EDGES
100
AcDbLine
 10
726.7122172684432
 20
1841.277568359534
 30
0.0
 11
729.9462172684636
 21
1841.166568359544
 31
0.0
  0
LINE
  5
499
330
1F
100
AcDbEntity
  8
EDGES
100
AcDbLine
 10
726.7122172684432
 20
1841.277568359534
 30
0.0
 11
729.9462172684636
 21
1841.166568359544
 31
0.0
  0
LINE
  5
49A
330
1F
100
AcDbEntity
  8
EDGES
100
AcDbLine
 10
702.0392172684362
 20
1842.076568359534
 30
0.0
 11
704.4312172684223
 21
1842.003568359534
 31
0.0
  0
LINE
  5
49B
330
1F
100
AcDbEntity
  8
EDGES
100
AcDbLine
 10
702.0392172684362
 20
1842.077568359531
 30
0.0
 11
704.4312172684223
 21
1842.003568359534
 31
0.0
  0
LINE
  5
49C
330
1F
100
AcDbEntity
  8
EDGES
100
AcDbLine
 10
695.2972172684619
 20
1842.278568359536
 30
0.0
 11
697.4762172684743
 21
1842.214568359541
 31
0.0
  0
LINE
  5
49D
330
1F
100
AcDbEntity
  8
EDGES
100
AcDbLine
 10
697.4762172684743
 20
1842.214568359541
 30
0.0
 11
699.7222172684312
 21
1842.147568359539
 31
0.0
  0
LINE
  5
49E
330
1F
100
AcDbEntity
  8
EDGES
100
AcDbLine
 10
699.7222172684312
 20
1842.147568359539
 30
0.0
 11
702.0392172684362
 21
1842.076568359534
 31
0.0
  0
LINE
  5
49F
330
1F
100
AcDbEntity
  8
EDGES
100
AcDbLine
 10
695.2972172684619
 20
1842.278568359536
 30
0.0
 11
697.4762172684743
 21
1842.214568359541
 31
0.0
  0
LINE
  5
4A0
330
1F
100
AcDbEntity
  8
EDGES
100
AcDbLine
 10
697.4762172684743
 20
1842.214568359541
 30
0.0
 11
699.7222172684312
 21
1842.147568359539
 31
0.0
  0
LINE
  5
4A1
330
1F
100
AcDbEntity
  8
EDGES
100
AcDbLine
 10
699.7222172684312
 20
1842.147568359539
 30
0.0
 11
702.0392172684362
 21
1842.077568359531
 31
0.0
  0
LINE
  5
4A2
330
1F
100
AcDbEntity
  8
EDGES
100
AcDbLine
 10
678.1042172684417
 20
1842.750568359538
 30
0.0
 11
679.8442172684255
 21
1842.705568359538
 31
0.0
  0
LINE
  5
4A3
330
1F
100
AcDbEntity
  8
EDGES
100
AcDbLine
 10
679.8442172684255
 20
1842.705568359538
 30
0.0
 11
681.6182172684372
 21
1842.658568359543
 31
0.0
  0
LINE
  5
4A4
330
1F
100
AcDbEntity
  8
EDGES
100
AcDbLine
 10
681.6182172684372
 20
1842.658568359543
 30
0.0
 11
683.4302172684667
 21
1842.610568359536
 31
0.0
  0
LINE
  5
4A5
330
1F
100
AcDbEntity
  8
EDGES
100
AcDbLine
 10
683.4302172684667
 20
1842.610568359536
 30
0.0
 11
685.2832172684495
 21
1842.560568359535
 31
0.0
  0
LINE
  5
4A6
330
1F
100
AcDbEntity
  8
EDGES
100
AcDbLine
 10
685.2832172684495
 20
1842.560568359535
 30
0.0
 11
687.1812172684323
 21
1842.508568359538
 31
0.0
  0
LINE
  5
4A7
330
1F
100
AcDbEntity
  8
EDGES
100
AcDbLine
 10
687.1812172684323
 20
1842.508568359538
 30
0.0
 11
689.1272172684645
 21
1842.454568359532
 31
0.0
  0
LINE
  5
4A8
330
1F
100
AcDbEntity
  8
EDGES
100
AcDbLine
 10
689.1272172684645
 20
1842.454568359532
 30
0.0
 11
691.1262172684766
 21
1842.398568359531
 31
0.0
  0
LINE
  5
4A9
330
1F
100
AcDbEntity
  8
EDGES
100
AcDbLine
 10
691.1262172684766
 20
1842.398568359531
 30
0.0
 11
693.1822172684585
 21
1842.339568359538
 31
0.0
  0
LINE
  5
4AA
330
1F
100
AcDbEntity
  8
EDGES
100
AcDbLine
 10
678.1042172684417
 20
1842.750568359538
 30
0.0
 11
679.8442172684255
 21
1842.705568359538
 31
0.0
  0
LINE
  5
4AB
330
1F
100
AcDbEntity
  8
EDGES
100
AcDbLine
 10
679.8442172684255
 20
1842.705568359538
 30
0.0
 11
681.6182172684372
 21
1842.658568359543
 31
0.0
  0
LINE
  5
4AC
330
1F
100
AcDbEntity
  8
EDGES
100
AcDbLine
 10
681.6182172684372
 20
1842.658568359543
 30
0.0
 11
683.4302172684667
 21
1842.610568359536
 31
0.0
  0
LINE
  5
4AD
330
1F
100
AcDbEntity
  8
EDGES
100
AcDbLine
 10
683.4302172684667
 20
1842.610568359536
 30
0.0
 11
685.2832172684495
 21
1842.560568359535
 31
0.0
  0
LINE
  5
4AE
330
1F
100
AcDbEntity
  8
EDGES
100
AcDbLine
 10
685.2832172684495
 20
1842.560568359535
 30
0.0
 11
687.1812172684323
 21
1842.508568359538
 31
0.0
  0
LINE
  5
4AF
330
1F
100
AcDbEntity
  8
EDGES
100
AcDbLine
 10
687.1812172684323
 20
1842.508568359538
 30
0.0
 11
689.1272172684645
 21
1842.454568359532
 31
0.0
  0
LINE
  5
4B0
330
1F
100
AcDbEntity
  8
EDGES
100
AcDbLine
 10
689.1272172684645
 20
1842.454568359532
 30
0.0
 11
691.1262172684766
 21
1842.398568359531
 31
0.0
  0
LINE
  5
4B1
330
1F
100
AcDbEntity
  8
EDGES
100
AcDbLine
 10
691.1262172684766
 20
1842.398568359531
 30
0.0
 11
693.1822172684585
 21
1842.339568359538
 31
0.0
  0
LINE
  5
4B2
330
1F
100
AcDbEntity
  8
EDGES
100
AcDbLine
 10
693.1822172684585
 20
1842.339568359538
 30
0.0
 11
695.2972172684619
 21
1842.278568359536
 31
0.0
  0
LINE
  5
4B3
330
1F
100
AcDbEntity
  8
EDGES
100
AcDbLine
 10
693.1822172684585
 20
1842.339568359538
 30
0.0
 11
695.2972172684619
 21
1842.278568359536
 31
0.0
  0
LINE
  5
4B4
330
1F
100
AcDbEntity
  8
EDGES
100
AcDbLine
 10
676.3932172684414
 20
1842.79456835954
 30
0.0
 11
678.1042172684417
 21
1842.750568359538
 31
0.0
  0
LINE
  5
4B5
330
1F
100
AcDbEntity
  8
EDGES
100
AcDbLine
 10
676.3932172684414
 20
1842.79456835954
 30
0.0
 11
678.1042172684417
 21
1842.750568359538
 31
0.0
  0
LINE
  5
4B6
330
1F
100
AcDbEntity
  8
EDGES
100
AcDbLine
 10
704.4312172684223
 20
1842.003568359534
 30
0.0
 11
706.9022172684364
 21
1841.926568359544
 31
0.0
  0
LINE
  5
4B7
330
1F
100
AcDbEntity
  8
EDGES
100
AcDbLine
 10
706.9022172684364
 20
1841.926568359544
 30
0.0
 11
709.4552172684709
 21
1841.846568359533
 31
0.0
  0
LINE
  5
4B8
330
1F
100
AcDbEntity
  8
EDGES
100
AcDbLine
 10
709.4552172684709
 20
1841.846568359533
 30
0.0
 11
712.0942172684587
 21
1841.761568359533
 31
0.0
  0
LINE
  5
4B9
330
1F
100
AcDbEntity
  8
EDGES
100
AcDbLine
 10
712.0942172684587
 20
1841.761568359533
 30
0.0
 11
714.8232172684467
 21
1841.673568359543
 31
0.0
  0
LINE
  5
4BA
330
1F
100
AcDbEntity
  8
EDGES
100
AcDbLine
 10
714.8232172684467
 20
1841.673568359543
 30
0.0
 11
717.6462172684248
 21
1841.581568359533
 31
0.0
  0
LINE
  5
4BB
330
1F
100
AcDbEntity
  8
EDGES
100
AcDbLine
 10
717.6462172684248
 20
1841.581568359533
 30
0.0
 11
720.5662172684421
 21
1841.484568359537
 31
0.0
  0
LINE
  5
4BC
330
1F
100
AcDbEntity
  8
EDGES
100
AcDbLine
 10
720.5662172684421
 20
1841.484568359537
 30
0.0
 11
723.5862172684344
 21
1841.383568359536
 31
0.0
  0
LINE
  5
4BD
330
1F
100
AcDbEntity
  8
EDGES
100
AcDbLine
 10
723.5862172684344
 20
1841.383568359536
 30
0.0
 11
726.7122172684432
 21
1841.277568359534
 31
0.0
  0
LINE
  5
4BE
330
1F
100
AcDbEntity
  8
EDGES
100
AcDbLine
 10
704.4312172684223
 20
1842.003568359534
 30
0.0
 11
706.9022172684364
 21
1841.926568359544
 31
0.0
  0
LINE
  5
4BF
330
1F
100
AcDbEntity
  8
EDGES
100
AcDbLine
 10
706.9022172684364
 20
1841.926568359544
 30
0.0
 11
709.4552172684709
 21
1841.846568359533
 31
0.0
  0
LINE
  5
4C0
330
1F
100
AcDbEntity
  8
EDGES
100
AcDbLine
 10
709.4552172684709
 20
1841.846568359533
 30
0.0
 11
712.0942172684587
 21
1841.761568359533
 31
0.0
  0
LINE
  5
4C1
330
1F
100
AcDbEntity
  8
EDGES
100
AcDbLine
 10
712.0942172684587
 20
1841.761568359533
 30
0.0
 11
714.8232172684467
 21
1841.673568359543
 31
0.0
  0
LINE
  5
4C2
330
1F
100
AcDbEntity
  8
EDGES
100
AcDbLine
 10
714.8232172684467
 20
1841.673568359543
 30
0.0
 11
717.6462172684248
 21
1841.581568359533
 31
0.0
  0
LINE
  5
4C3
330
1F
100
AcDbEntity
  8
EDGES
100
AcDbLine
 10
717.6462172684248
 20
1841.581568359533
 30
0.0
 11
720.5662172684421
 21
1841.484568359537
 31
0.0
  0
LINE
  5
4C4
330
1F
100
AcDbEntity
  8
EDGES
100
AcDbLine
 10
720.5662172684421
 20
1841.484568359537
 30
0.0
 11
723.5862172684344
 21
1841.383568359536
 31
0.0
  0
LINE
  5
4C5
330
1F
100
AcDbEntity
  8
EDGES
100
AcDbLine
 10
723.5862172684344
 20
1841.383568359536
 30
0.0
 11
726.7122172684432
 21
1841.277568359534
 31
0.0
  0
LINE
  5
4C6
330
1F
100
AcDbEntity
  8
EDGES
100
AcDbLine
 10
751.7532172684306
 20
1840.401568359543
 30
0.0
 11
768.3582172684575
 21
1839.800568359539
 31
0.0
  0
LINE
  5
4C7
330
1F
100
AcDbEntity
  8
EDGES
100
AcDbLine
 10
751.7532172684306
 20
1840.401568359543
 30
0.0
 11
768.3582172684575
 21
1839.800568359539
 31
0.0
  0
LINE
  5
4C8
330
1F
100
AcDbEntity
  8
EDGES
100
AcDbLine
 10
729.9462172684636
 20
1841.166568359544
 30
0.0
 11
733.2922172684286
 21
1841.050568359539
 31
0.0
  0
LINE
  5
4C9
330
1F
100
AcDbEntity
  8
EDGES
100
AcDbLine
 10
733.2922172684286
 20
1841.050568359539
 30
0.0
 11
736.7542172684418
 21
1840.929568359531
 31
0.0
  0
LINE
  5
4CA
330
1F
100
AcDbEntity
  8
EDGES
100
AcDbLine
 10
729.9462172684636
 20
1841.166568359544
 30
0.0
 11
733.2922172684286
 21
1841.050568359539
 31
0.0
  0
LINE
  5
4CB
330
1F
100
AcDbEntity
  8
EDGES
100
AcDbLine
 10
733.2922172684286
 20
1841.050568359539
 30
0.0
 11
736.7542172684418
 21
1840.929568359531
 31
0.0
  0
LINE
  5
4CC
330
1F
100
AcDbEntity
  8
EDGES
100
AcDbLine
 10
736.7542172684418
 20
1840.929568359531
 30
0.0
 11
751.7532172684306
 21
1840.401568359543
 31
0.0
  0
LINE
  5
4CD
330
1F
100
AcDbEntity
  8
EDGES
100
AcDbLine
 10
736.7542172684418
 20
1840.929568359531
 30
0.0
 11
751.7532172684306
 21
1840.401568359543
 31
0.0
  0
LINE
  5
4CF
330
1F
100
AcDbEntity
  8
EDGES
100
AcDbLine
 10
837.229217268459
 20
1906.987568359543
 30
0.0
 11
818.5742172684351
 21
1905.808568359536
 31
0.0
  0
LINE
  5
4D0
330
1F
100
AcDbEntity
  8
EDGES
100
AcDbLine
 10
837.229217268459
 20
1906.987568359543
 30
0.0
 11
818.5742172684351
 21
1905.808568359536
 31
0.0
  0
LINE
  5
4D1
330
1F
100
AcDbEntity
  8
EDGES
100
AcDbLine
 10
818.5742172684351
 20
1905.808568359536
 30
0.0
 11
799.8442172684301
 21
1904.46156835954
 31
0.0
  0
LINE
  5
4D2
330
1F
100
AcDbEntity
  8
EDGES
100
AcDbLine
 10
818.5742172684351
 20
1905.808568359536
 30
0.0
 11
799.8442172684301
 21
1904.46156835954
 31
0.0
  0
LINE
  5
4D3
330
1F
100
AcDbEntity
  8
EDGES
100
AcDbLine
 10
799.8442172684301
 20
1904.46156835954
 30
0.0
 11
781.2012172684328
 21
1902.970568359539
 31
0.0
  0
LINE
  5
4D4
330
1F
100
AcDbEntity
  8
EDGES
100
AcDbLine
 10
799.8442172684301
 20
1904.46156835954
 30
0.0
 11
781.2012172684328
 21
1902.970568359539
 31
0.0
  0
LINE
  5
4D6
330
1F
100
AcDbEntity
  8
EDGES
100
AcDbLine
 10
873.6952172684206
 20
1908.762568359538
 30
0.0
 11
855.6462172684584
 21
1907.977568359531
 31
0.0
  0
LINE
  5
4D7
330
1F
100
AcDbEntity
  8
EDGES
100
AcDbLine
 10
873.6952172684206
 20
1908.762568359538
 30
0.0
 11
855.6462172684584
 21
1907.977568359531
 31
0.0
  0
LINE
  5
4D9
330
1F
100
AcDbEntity
  8
EDGES
100
AcDbLine
 10
855.6462172684584
 20
1907.977568359531
 30
0.0
 11
837.229217268459
 21
1906.987568359543
 31
0.0
  0
LINE
  5
4DA
330
1F
100
AcDbEntity
  8
EDGES
100
AcDbLine
 10
855.6462172684584
 20
1907.977568359531
 30
0.0
 11
837.229217268459
 21
1906.987568359543
 31
0.0
  0
LINE
  5
4EB
330
1F
100
AcDbEntity
  8
EDGES
100
AcDbLine
 10
824.7022172684248
 20
1837.70656835954
 30
0.0
 11
844.624217268433
 21
1836.957568359541
 31
0.0
  0
LINE
  5
4EC
330
1F
100
AcDbEntity
  8
EDGES
100
AcDbLine
 10
824.7022172684248
 20
1837.70656835954
 30
0.0
 11
844.624217268433
 21
1836.957568359541
 31
0.0
  0
LINE
  5
4ED
330
1F
100
AcDbEntity
  8
EDGES
100
AcDbLine
 10
805.142217268469
 20
1838.439568359537
 30
0.0
 11
824.7022172684248
 21
1837.70656835954
 31
0.0
  0
LINE
  5
4EE
330
1F
100
AcDbEntity
  8
EDGES
100
AcDbLine
 10
805.142217268469
 20
1838.439568359537
 30
0.0
 11
824.7022172684248
 21
1837.70656835954
 31
0.0
  0
LINE
  5
4EF
330
1F
100
AcDbEntity
  8
EDGES
100
AcDbLine
 10
786.2582172684549
 20
1839.142568359538
 30
0.0
 11
805.142217268469
 21
1838.439568359537
 31
0.0
  0
LINE
  5
4F0
330
1F
100
AcDbEntity
  8
EDGES
100
AcDbLine
 10
786.2582172684549
 20
1839.142568359538
 30
0.0
 11
805.142217268469
 21
1838.439568359537
 31
0.0
  0
LINE
  5
4F1
330
1F
100
AcDbEntity
  8
EDGES
100
AcDbLine
 10
844.624217268433
 20
1836.957568359541
 30
0.0
 11
864.6002172684754
 21
1836.204568359537
 31
0.0
  0
LINE
  5
4F2
330
1F
100
AcDbEntity
  8
EDGES
100
AcDbLine
 10
844.624217268433
 20
1836.957568359541
 30
0.0
 11
864.6002172684754
 21
1836.204568359537
 31
0.0
  0
LINE
  5
4F3
330
1F
100
AcDbEntity
  8
EDGES
100
AcDbLine
 10
864.6002172684754
 20
1836.204568359537
 30
0.0
 11
884.3172172684328
 21
1835.461568359538
 31
0.0
  0
LINE
  5
4F4
330
1F
100
AcDbEntity
  8
EDGES
100
AcDbLine
 10
864.6002172684754
 20
1836.204568359537
 30
0.0
 11
884.3172172684328
 21
1835.461568359538
 31
0.0
  0
LINE
  5
4F5
330
1F
100
AcDbEntity
  8
EDGES
100
AcDbLine
 10
1087.624217268428
 20
1827.302568359532
 30
0.0
 11
1102.523217268442
 21
1826.600568359542
 31
0.0
  0
LINE
  5
4F6
330
1F
100
AcDbEntity
  8
EDGES
100
AcDbLine
 10
1087.624217268428
 20
1827.302568359532
 30
0.0
 11
1102.523217268442
 21
1826.600568359542
 31
0.0
  0
LINE
  5
4F7
330
1F
100
AcDbEntity
  8
EDGES
100
AcDbLine
 10
1103.594217268466
 20
1901.678568359532
 30
0.0
 11
1087.848217268431
 21
1903.120568359544
 31
0.0
  0
LINE
  5
4F8
330
1F
100
AcDbEntity
  8
EDGES
100
AcDbLine
 10
1103.594217268466
 20
1901.678568359532
 30
0.0
 11
1087.848217268431
 21
1903.120568359544
 31
0.0
  0
LINE
  5
4FA
330
1F
100
AcDbEntity
  8
EDGES
100
AcDbLine
 10
991.9662172684708
 20
1908.991568359543
 30
0.0
 11
975.6732172684516
 21
1909.468568359532
 31
0.0
  0
LINE
  5
4FB
330
1F
100
AcDbEntity
  8
EDGES
100
AcDbLine
 10
975.4212172684626
 20
1832.006568359536
 30
0.0
 11
992.3512172684651
 21
1831.345568359542
 31
0.0
  0
LINE
  5
4FC
330
1F
100
AcDbEntity
  8
EDGES
100
AcDbLine
 10
975.4212172684626
 20
1832.006568359536
 30
0.0
 11
992.3512172684651
 21
1831.345568359542
 31
0.0
  0
LINE
  5
4FD
330
1F
100
AcDbEntity
  8
EDGES
100
AcDbLine
 10
991.9662172684708
 20
1908.991568359543
 30
0.0
 11
975.6732172684516
 21
1909.468568359532
 31
0.0
  0
LINE
  5
4FF
330
1F
100
AcDbEntity
  8
EDGES
100
AcDbLine
 10
942.6352172684753
 20
1909.945568359536
 30
0.0
 11
925.8142172684253
 21
1909.927568359539
 31
0.0
  0
LINE
  5
500
330
1F
100
AcDbEntity
  8
EDGES
100
AcDbLine
 10
942.6352172684753
 20
1909.945568359536
 30
0.0
 11
925.8142172684253
 21
1909.927568359539
 31
0.0
  0
LINE
  5
502
330
1F
100
AcDbEntity
  8
EDGES
100
AcDbLine
 10
925.8142172684253
 20
1909.927568359539
 30
0.0
 11
908.7422172684407
 21
1909.730568359539
 31
0.0
  0
LINE
  5
503
330
1F
100
AcDbEntity
  8
EDGES
100
AcDbLine
 10
925.8142172684253
 20
1909.927568359539
 30
0.0
 11
908.7422172684407
 21
1909.730568359539
 31
0.0
  0
LINE
  5
504
330
1F
100
AcDbEntity
  8
EDGES
100
AcDbLine
 10
908.7422172684407
 20
1909.730568359539
 30
0.0
 11
891.3822172684442
 21
1909.344568359533
 31
0.0
  0
LINE
  5
505
330
1F
100
AcDbEntity
  8
EDGES
100
AcDbLine
 10
908.7422172684407
 20
1909.730568359539
 30
0.0
 11
891.3822172684442
 21
1909.344568359533
 31
0.0
  0
LINE
  5
519
330
1F
100
AcDbEntity
  8
EDGES
100
AcDbLine
 10
975.6732172684516
 20
1909.468568359532
 30
0.0
 11
959.2422172684402
 21
1909.789568359532
 31
0.0
  0
LINE
  5
51A
330
1F
100
AcDbEntity
  8
EDGES
100
AcDbLine
 10
975.6732172684516
 20
1909.468568359532
 30
0.0
 11
959.2422172684402
 21
1909.789568359532
 31
0.0
  0
LINE
  5
51B
330
1F
100
AcDbEntity
  8
EDGES
100
AcDbLine
 10
959.2422172684402
 20
1909.789568359532
 30
0.0
 11
942.6352172684753
 21
1909.945568359536
 31
0.0
  0
LINE
  5
51C
330
1F
100
AcDbEntity
  8
EDGES
100
AcDbLine
 10
959.2422172684402
 20
1909.789568359532
 30
0.0
 11
942.6352172684753
 21
1909.945568359536
 31
0.0
  0
LINE
  5
51D
330
1F
100
AcDbEntity
  8
EDGES
100
AcDbLine
 10
922.2002172684549
 20
1834.035568359542
 30
0.0
 11
940.3832172684767
 21
1833.347568359532
 31
0.0
  0
LINE
  5
51E
330
1F
100
AcDbEntity
  8
EDGES
100
AcDbLine
 10
922.2002172684549
 20
1834.035568359542
 30
0.0
 11
940.3832172684767
 21
1833.347568359532
 31
0.0
  0
LINE
  5
51F
330
1F
100
AcDbEntity
  8
EDGES
100
AcDbLine
 10
903.5242172684272
 20
1834.738568359544
 30
0.0
 11
922.2002172684549
 21
1834.035568359542
 31
0.0
  0
LINE
  5
520
330
1F
100
AcDbEntity
  8
EDGES
100
AcDbLine
 10
903.5242172684272
 20
1834.738568359544
 30
0.0
 11
922.2002172684549
 21
1834.035568359542
 31
0.0
  0
LINE
  5
521
330
1F
100
AcDbEntity
  8
EDGES
100
AcDbLine
 10
958.1112172684536
 20
1832.67256835953
 30
0.0
 11
975.4212172684626
 21
1832.006568359536
 31
0.0
  0
LINE
  5
522
330
1F
100
AcDbEntity
  8
EDGES
100
AcDbLine
 10
958.1112172684536
 20
1832.67256835953
 30
0.0
 11
975.4212172684626
 21
1832.006568359536
 31
0.0
  0
LINE
  5
523
330
1F
100
AcDbEntity
  8
EDGES
100
AcDbLine
 10
940.3832172684767
 20
1833.347568359532
 30
0.0
 11
958.1112172684536
 21
1832.67256835953
 31
0.0
  0
LINE
  5
524
330
1F
100
AcDbEntity
  8
EDGES
100
AcDbLine
 10
940.3832172684767
 20
1833.347568359532
 30
0.0
 11
958.1112172684536
 21
1832.67256835953
 31
0.0
  0
LINE
  5
525
330
1F
100
AcDbEntity
  8
EDGES
100
AcDbLine
 10
1056.187217268445
 20
1905.622568359537
 30
0.0
 11
1040.256217268422
 21
1906.675568359535
 31
0.0
  0
LINE
  5
526
330
1F
100
AcDbEntity
  8
EDGES
100
AcDbLine
 10
1056.187217268445
 20
1905.622568359537
 30
0.0
 11
1040.256217268422
 21
1906.675568359535
 31
0.0
  0
LINE
  5
527
330
1F
100
AcDbEntity
  8
EDGES
100
AcDbLine
 10
1024.247217268425
 20
1907.590568359541
 30
0.0
 11
1008.153217268473
 21
1908.363568359537
 31
0.0
  0
LINE
  5
528
330
1F
100
AcDbEntity
  8
EDGES
100
AcDbLine
 10
1024.247217268425
 20
1907.590568359541
 30
0.0
 11
1008.153217268473
 21
1908.363568359537
 31
0.0
  0
LINE
  5
529
330
1F
100
AcDbEntity
  8
EDGES
100
AcDbLine
 10
1008.153217268473
 20
1908.363568359537
 30
0.0
 11
991.9662172684708
 21
1908.991568359543
 31
0.0
  0
LINE
  5
52A
330
1F
100
AcDbEntity
  8
EDGES
100
AcDbLine
 10
1008.153217268473
 20
1908.363568359537
 30
0.0
 11
991.9662172684708
 21
1908.991568359543
 31
0.0
  0
LINE
  5
52B
330
1F
100
AcDbEntity
  8
EDGES
100
AcDbLine
 10
1040.256217268422
 20
1906.675568359535
 30
0.0
 11
1024.247217268425
 21
1907.590568359541
 31
0.0
  0
LINE
  5
52C
330
1F
100
AcDbEntity
  8
EDGES
100
AcDbLine
 10
1040.256217268422
 20
1906.675568359535
 30
0.0
 11
1024.247217268425
 21
1907.590568359541
 31
0.0
  0
LINE
  5
52D
330
1F
100
AcDbEntity
  8
EDGES
100
AcDbLine
 10
1072.049217268472
 20
1904.436568359533
 30
0.0
 11
1056.187217268445
 21
1905.622568359537
 31
0.0
  0
LINE
  5
52E
330
1F
100
AcDbEntity
  8
EDGES
100
AcDbLine
 10
1072.049217268472
 20
1904.436568359533
 30
0.0
 11
1056.187217268445
 21
1905.622568359537
 31
0.0
  0
LINE
  5
52F
330
1F
100
AcDbEntity
  8
EDGES
100
AcDbLine
 10
1087.848217268431
 20
1903.120568359544
 30
0.0
 11
1072.049217268472
 21
1904.436568359533
 31
0.0
  0
LINE
  5
530
330
1F
100
AcDbEntity
  8
EDGES
100
AcDbLine
 10
1087.848217268431
 20
1903.120568359544
 30
0.0
 11
1072.049217268472
 21
1904.436568359533
 31
0.0
  0
LINE
  5
531
330
1F
100
AcDbEntity
  8
EDGES
100
AcDbLine
 10
1041.235217268452
 20
1829.354568359537
 30
0.0
 11
1056.975217268445
 21
1828.679568359536
 31
0.0
  0
LINE
  5
532
330
1F
100
AcDbEntity
  8
EDGES
100
AcDbLine
 10
1041.235217268452
 20
1829.354568359537
 30
0.0
 11
1056.975217268445
 21
1828.679568359536
 31
0.0
  0
LINE
  5
533
330
1F
100
AcDbEntity
  8
EDGES
100
AcDbLine
 10
1008.940217268475
 20
1830.685568359531
 30
0.0
 11
1025.22421726846
 21
1830.022568359543
 31
0.0
  0
LINE
  5
534
330
1F
100
AcDbEntity
  8
EDGES
100
AcDbLine
 10
1008.940217268475
 20
1830.685568359531
 30
0.0
 11
1025.22421726846
 21
1830.022568359543
 31
0.0
  0
LINE
  5
535
330
1F
100
AcDbEntity
  8
EDGES
100
AcDbLine
 10
992.3512172684651
 20
1831.345568359542
 30
0.0
 11
1008.940217268475
 21
1830.685568359531
 31
0.0
  0
LINE
  5
536
330
1F
100
AcDbEntity
  8
EDGES
100
AcDbLine
 10
992.3512172684651
 20
1831.345568359542
 30
0.0
 11
1008.940217268475
 21
1830.685568359531
 31
0.0
  0
LINE
  5
537
330
1F
100
AcDbEntity
  8
EDGES
100
AcDbLine
 10
1025.22421726846
 20
1830.022568359543
 30
0.0
 11
1041.235217268452
 21
1829.354568359537
 31
0.0
  0
LINE
  5
538
330
1F
100
AcDbEntity
  8
EDGES
100
AcDbLine
 10
1025.22421726846
 20
1830.022568359543
 30
0.0
 11
1041.235217268452
 21
1829.354568359537
 31
0.0
  0
LINE
  5
539
330
1F
100
AcDbEntity
  8
EDGES
100
AcDbLine
 10
1056.975217268445
 20
1828.679568359536
 30
0.0
 11
1072.440217268451
 21
1827.995568359544
 31
0.0
  0
LINE
  5
53A
330
1F
100
AcDbEntity
  8
EDGES
100
AcDbLine
 10
1056.975217268445
 20
1828.679568359536
 30
0.0
 11
1072.440217268451
 21
1827.995568359544
 31
0.0
  0
LINE
  5
53B
330
1F
100
AcDbEntity
  8
EDGES
100
AcDbLine
 10
1072.440217268451
 20
1827.995568359544
 30
0.0
 11
1087.624217268428
 21
1827.302568359532
 31
0.0
  0
LINE
  5
53C
330
1F
100
AcDbEntity
  8
EDGES
100
AcDbLine
 10
1072.440217268451
 20
1827.995568359544
 30
0.0
 11
1087.624217268428
 21
1827.302568359532
 31
0.0
  0
LINE
  5
53D
330
1F
100
AcDbEntity
  8
EDGES
100
AcDbLine
 10
1185.878217268425
 20
1822.102568359543
 30
0.0
 11
1198.920217268466
 21
1821.308568359545
 31
0.0
  0
LINE
  5
53E
330
1F
100
AcDbEntity
  8
EDGES
100
AcDbLine
 10
1185.878217268425
 20
1822.102568359543
 30
0.0
 11
1198.920217268466
 21
1821.308568359545
 31
0.0
  0
LINE
  5
53F
330
1F
100
AcDbEntity
  8
EDGES
100
AcDbLine
 10
1204.561217268435
 20
1889.713568359543
 30
0.0
 11
1192.516217268434
 21
1891.368568359543
 31
0.0
  0
LINE
  5
540
330
1F
100
AcDbEntity
  8
EDGES
100
AcDbLine
 10
1204.561217268435
 20
1889.713568359543
 30
0.0
 11
1192.516217268434
 21
1891.368568359543
 31
0.0
  0
LINE
  5
541
330
1F
100
AcDbEntity
  8
EDGES
100
AcDbLine
 10
1150.278217268436
 20
1896.685568359534
 30
0.0
 11
1134.918217268449
 21
1898.438568359542
 31
0.0
  0
LINE
  5
542
330
1F
100
AcDbEntity
  8
EDGES
100
AcDbLine
 10
1150.278217268436
 20
1896.685568359534
 30
0.0
 11
1134.918217268449
 21
1898.438568359542
 31
0.0
  0
LINE
  5
543
330
1F
100
AcDbEntity
  8
EDGES
100
AcDbLine
 10
1134.918217268449
 20
1898.438568359542
 30
0.0
 11
1119.294217268447
 21
1900.114568359531
 31
0.0
  0
LINE
  5
544
330
1F
100
AcDbEntity
  8
EDGES
100
AcDbLine
 10
1134.918217268449
 20
1898.438568359542
 30
0.0
 11
1119.294217268447
 21
1900.114568359531
 31
0.0
  0
LINE
  5
545
330
1F
100
AcDbEntity
  8
EDGES
100
AcDbLine
 10
1119.294217268447
 20
1900.114568359531
 30
0.0
 11
1103.594217268466
 21
1901.678568359532
 31
0.0
  0
LINE
  5
546
330
1F
100
AcDbEntity
  8
EDGES
100
AcDbLine
 10
1119.294217268447
 20
1900.114568359531
 30
0.0
 11
1103.594217268466
 21
1901.678568359532
 31
0.0
  0
LINE
  5
547
330
1F
100
AcDbEntity
  8
EDGES
100
AcDbLine
 10
1179.303217268427
 20
1893.109568359538
 30
0.0
 11
1165.148217268467
 21
1894.895568359534
 31
0.0
  0
LINE
  5
548
330
1F
100
AcDbEntity
  8
EDGES
100
AcDbLine
 10
1179.303217268427
 20
1893.109568359538
 30
0.0
 11
1165.148217268467
 21
1894.895568359534
 31
0.0
  0
LINE
  5
549
330
1F
100
AcDbEntity
  8
EDGES
100
AcDbLine
 10
1165.148217268467
 20
1894.895568359534
 30
0.0
 11
1150.278217268436
 21
1896.685568359534
 31
0.0
  0
LINE
  5
54A
330
1F
100
AcDbEntity
  8
EDGES
100
AcDbLine
 10
1165.148217268467
 20
1894.895568359534
 30
0.0
 11
1150.278217268436
 21
1896.685568359534
 31
0.0
  0
LINE
  5
54B
330
1F
100
AcDbEntity
  8
EDGES
100
AcDbLine
 10
1192.516217268434
 20
1891.368568359543
 30
0.0
 11
1179.303217268427
 21
1893.109568359538
 31
0.0
  0
LINE
  5
54C
330
1F
100
AcDbEntity
  8
EDGES
100
AcDbLine
 10
1192.516217268434
 20
1891.368568359543
 30
0.0
 11
1179.303217268427
 21
1893.109568359538
 31
0.0
  0
LINE
  5
54D
330
1F
100
AcDbEntity
  8
EDGES
100
AcDbLine
 10
1145.467217268476
 20
1824.416568359542
 30
0.0
 11
1159.190217268446
 21
1823.658568359537
 31
0.0
  0
LINE
  5
54E
330
1F
100
AcDbEntity
  8
EDGES
100
AcDbLine
 10
1145.467217268476
 20
1824.416568359542
 30
0.0
 11
1159.190217268446
 21
1823.658568359537
 31
0.0
  0
LINE
  5
54F
330
1F
100
AcDbEntity
  8
EDGES
100
AcDbLine
 10
1117.133217268446
 20
1825.885568359542
 30
0.0
 11
1131.449217268454
 21
1825.158568359545
 31
0.0
  0
LINE
  5
550
330
1F
100
AcDbEntity
  8
EDGES
100
AcDbLine
 10
1117.133217268446
 20
1825.885568359542
 30
0.0
 11
1131.449217268454
 21
1825.158568359545
 31
0.0
  0
LINE
  5
551
330
1F
100
AcDbEntity
  8
EDGES
100
AcDbLine
 10
1102.523217268442
 20
1826.600568359542
 30
0.0
 11
1117.133217268446
 21
1825.885568359542
 31
0.0
  0
LINE
  5
552
330
1F
100
AcDbEntity
  8
EDGES
100
AcDbLine
 10
1102.523217268442
 20
1826.600568359542
 30
0.0
 11
1117.133217268446
 21
1825.885568359542
 31
0.0
  0
LINE
  5
553
330
1F
100
AcDbEntity
  8
EDGES
100
AcDbLine
 10
1131.449217268454
 20
1825.158568359545
 30
0.0
 11
1145.467217268476
 21
1824.416568359542
 31
0.0
  0
LINE
  5
554
330
1F
100
AcDbEntity
  8
EDGES
100
AcDbLine
 10
1131.449217268454
 20
1825.158568359545
 30
0.0
 11
1145.467217268476
 21
1824.416568359542
 31
0.0
  0
LINE
  5
555
330
1F
100
AcDbEntity
  8
EDGES
100
AcDbLine
 10
1159.190217268446
 20
1823.658568359537
 30
0.0
 11
1172.64821726846
 21
1822.88656835954
 31
0.0
  0
LINE
  5
556
330
1F
100
AcDbEntity
  8
EDGES
100
AcDbLine
 10
1159.190217268446
 20
1823.658568359537
 30
0.0
 11
1172.64821726846
 21
1822.88656835954
 31
0.0
  0
LINE
  5
557
330
1F
100
AcDbEntity
  8
EDGES
100
AcDbLine
 10
1172.64821726846
 20
1822.88656835954
 30
0.0
 11
1185.878217268425
 21
1822.102568359543
 31
0.0
  0
LINE
  5
558
330
1F
100
AcDbEntity
  8
EDGES
100
AcDbLine
 10
1172.64821726846
 20
1822.88656835954
 30
0.0
 11
1185.878217268425
 21
1822.102568359543
 31
0.0
  0
LINE
  5
559
330
1F
100
AcDbEntity
  8
EDGES
100
AcDbLine
 10
1249.94421726845
 20
1845.058568359537
 30
0.0
 11
1249.94421726845
 21
1847.37456835953
 31
0.0
  0
LINE
  5
55A
330
1F
100
AcDbEntity
  8
EDGES
100
AcDbLine
 10
1249.94421726845
 20
1845.058568359537
 30
0.0
 11
1249.94421726845
 21
1847.37456835953
 31
0.0
  0
LINE
  5
55C
330
1F
100
AcDbEntity
  8
EDGES
100
AcDbLine
 10
1248.486217268436
 20
1879.47056835954
 30
0.0
 11
1247.714217268453
 21
1880.708568359541
 31
0.0
  0
LINE
  5
55D
330
1F
100
AcDbEntity
  8
EDGES
100
AcDbLine
 10
1248.486217268436
 20
1879.47056835954
 30
0.0
 11
1247.714217268453
 21
1880.708568359541
 31
0.0
  0
LINE
  5
55E
330
1F
100
AcDbEntity
  8
EDGES
100
AcDbLine
 10
1224.234217268447
 20
1886.819568359531
 30
0.0
 11
1215.209217268438
 21
1888.18356835954
 31
0.0
  0
LINE
  5
55F
330
1F
100
AcDbEntity
  8
EDGES
100
AcDbLine
 10
1224.234217268447
 20
1886.819568359531
 30
0.0
 11
1215.209217268438
 21
1888.18356835954
 31
0.0
  0
LINE
  5
560
330
1F
100
AcDbEntity
  8
EDGES
100
AcDbLine
 10
1215.209217268438
 20
1888.18356835954
 30
0.0
 11
1204.561217268435
 21
1889.713568359543
 31
0.0
  0
LINE
  5
561
330
1F
100
AcDbEntity
  8
EDGES
100
AcDbLine
 10
1215.209217268438
 20
1888.18356835954
 30
0.0
 11
1204.561217268435
 21
1889.713568359543
 31
0.0
  0
LINE
  5
562
330
1F
100
AcDbEntity
  8
EDGES
100
AcDbLine
 10
1247.714217268453
 20
1880.708568359541
 30
0.0
 11
1246.411217268446
 21
1881.779568359537
 31
0.0
  0
LINE
  5
563
330
1F
100
AcDbEntity
  8
EDGES
100
AcDbLine
 10
1246.411217268446
 20
1881.779568359537
 30
0.0
 11
1244.357217268459
 21
1882.74656835954
 31
0.0
  0
LINE
  5
564
330
1F
100
AcDbEntity
  8
EDGES
100
AcDbLine
 10
1244.357217268459
 20
1882.74656835954
 30
0.0
 11
1241.332217268422
 21
1883.671568359535
 31
0.0
  0
LINE
  5
565
330
1F
100
AcDbEntity
  8
EDGES
100
AcDbLine
 10
1241.332217268422
 20
1883.671568359535
 30
0.0
 11
1237.116217268437
 21
1884.617568359534
 31
0.0
  0
LINE
  5
566
330
1F
100
AcDbEntity
  8
EDGES
100
AcDbLine
 10
1237.116217268437
 20
1884.617568359534
 30
0.0
 11
1231.490217268431
 21
1885.645568359539
 31
0.0
  0
LINE
  5
567
330
1F
100
AcDbEntity
  8
EDGES
100
AcDbLine
 10
1231.490217268431
 20
1885.645568359539
 30
0.0
 11
1224.234217268447
 21
1886.819568359531
 31
0.0
  0
LINE
  5
568
330
1F
100
AcDbEntity
  8
EDGES
100
AcDbLine
 10
1247.714217268453
 20
1880.708568359541
 30
0.0
 11
1246.411217268446
 21
1881.779568359537
 31
0.0
  0
LINE
  5
569
330
1F
100
AcDbEntity
  8
EDGES
100
AcDbLine
 10
1246.411217268446
 20
1881.779568359537
 30
0.0
 11
1244.357217268459
 21
1882.74656835954
 31
0.0
  0
LINE
  5
56A
330
1F
100
AcDbEntity
  8
EDGES
100
AcDbLine
 10
1244.357217268459
 20
1882.74656835954
 30
0.0
 11
1241.332217268422
 21
1883.671568359535
 31
0.0
  0
LINE
  5
56B
330
1F
100
AcDbEntity
  8
EDGES
100
AcDbLine
 10
1241.332217268422
 20
1883.671568359535
 30
0.0
 11
1237.116217268437
 21
1884.617568359534
 31
0.0
  0
LINE
  5
56C
330
1F
100
AcDbEntity
  8
EDGES
100
AcDbLine
 10
1237.116217268437
 20
1884.617568359534
 30
0.0
 11
1231.490217268431
 21
1885.645568359539
 31
0.0
  0
LINE
  5
56D
330
1F
100
AcDbEntity
  8
EDGES
100
AcDbLine
 10
1231.490217268431
 20
1885.645568359539
 30
0.0
 11
1224.234217268447
 21
1886.819568359531
 31
0.0
  0
LINE
  5
56E
330
1F
100
AcDbEntity
  8
EDGES
100
AcDbLine
 10
1249.94421726845
 20
1847.37456835953
 30
0.0
 11
1249.94421726845
 21
1849.578568359536
 31
0.0
  0
LINE
  5
56F
330
1F
100
AcDbEntity
  8
EDGES
100
AcDbLine
 10
1249.94421726845
 20
1849.578568359536
 30
0.0
 11
1249.94421726845
 21
1851.709568359542
 31
0.0
  0
LINE
  5
570
330
1F
100
AcDbEntity
  8
EDGES
100
AcDbLine
 10
1249.94421726845
 20
1851.709568359542
 30
0.0
 11
1249.94421726845
 21
1853.806568359534
 31
0.0
  0
LINE
  5
571
330
1F
100
AcDbEntity
  8
EDGES
100
AcDbLine
 10
1249.94421726845
 20
1853.806568359534
 30
0.0
 11
1249.94421726845
 21
1855.908568359542
 31
0.0
  0
LINE
  5
572
330
1F
100
AcDbEntity
  8
EDGES
100
AcDbLine
 10
1249.94421726845
 20
1855.908568359542
 30
0.0
 11
1249.94421726845
 21
1858.053568359541
 31
0.0
  0
LINE
  5
573
330
1F
100
AcDbEntity
  8
EDGES
100
AcDbLine
 10
1249.94421726845
 20
1858.053568359541
 30
0.0
 11
1249.94421726845
 21
1860.281568359543
 31
0.0
  0
LINE
  5
574
330
1F
100
AcDbEntity
  8
EDGES
100
AcDbLine
 10
1249.94421726845
 20
1860.281568359543
 30
0.0
 11
1249.942217268456
 21
1862.614568359536
 31
0.0
  0
LINE
  5
575
330
1F
100
AcDbEntity
  8
EDGES
100
AcDbLine
 10
1249.942217268456
 20
1862.614568359536
 30
0.0
 11
1249.928217268434
 21
1865.01656835954
 31
0.0
  0
LINE
  5
576
330
1F
100
AcDbEntity
  8
EDGES
100
AcDbLine
 10
1249.928217268434
 20
1865.01656835954
 30
0.0
 11
1249.891217268471
 21
1867.436568359541
 31
0.0
  0
LINE
  5
577
330
1F
100
AcDbEntity
  8
EDGES
100
AcDbLine
 10
1249.891217268471
 20
1867.436568359541
 30
0.0
 11
1249.819217268425
 21
1869.822568359542
 31
0.0
  0
LINE
  5
578
330
1F
100
AcDbEntity
  8
EDGES
100
AcDbLine
 10
1249.819217268425
 20
1869.822568359542
 30
0.0
 11
1249.700217268441
 21
1872.124568359542
 31
0.0
  0
LINE
  5
579
330
1F
100
AcDbEntity
  8
EDGES
100
AcDbLine
 10
1249.700217268441
 20
1872.124568359542
 30
0.0
 11
1249.522217268435
 21
1874.289568359533
 31
0.0
  0
LINE
  5
57A
330
1F
100
AcDbEntity
  8
EDGES
100
AcDbLine
 10
1249.522217268435
 20
1874.289568359533
 30
0.0
 11
1249.274217268437
 21
1876.266568359544
 31
0.0
  0
LINE
  5
57C
330
1F
100
AcDbEntity
  8
EDGES
100
AcDbLine
 10
1248.944217268474
 20
1878.004568359533
 30
0.0
 11
1248.486217268436
 21
1879.47056835954
 31
0.0
  0
LINE
  5
57D
330
1F
100
AcDbEntity
  8
EDGES
100
AcDbLine
 10
1249.94421726845
 20
1847.37456835953
 30
0.0
 11
1249.94421726845
 21
1849.578568359536
 31
0.0
  0
LINE
  5
57E
330
1F
100
AcDbEntity
  8
EDGES
100
AcDbLine
 10
1249.94421726845
 20
1849.578568359536
 30
0.0
 11
1249.94421726845
 21
1851.709568359542
 31
0.0
  0
LINE
  5
57F
330
1F
100
AcDbEntity
  8
EDGES
100
AcDbLine
 10
1249.94421726845
 20
1851.709568359542
 30
0.0
 11
1249.94421726845
 21
1853.806568359534
 31
0.0
  0
LINE
  5
580
330
1F
100
AcDbEntity
  8
EDGES
100
AcDbLine
 10
1249.94421726845
 20
1853.806568359534
 30
0.0
 11
1249.94421726845
 21
1855.908568359542
 31
0.0
  0
LINE
  5
581
330
1F
100
AcDbEntity
  8
EDGES
100
AcDbLine
 10
1249.94421726845
 20
1855.908568359542
 30
0.0
 11
1249.94421726845
 21
1858.053568359541
 31
0.0
  0
LINE
  5
582
330
1F
100
AcDbEntity
  8
EDGES
100
AcDbLine
 10
1249.94421726845
 20
1858.053568359541
 30
0.0
 11
1249.94421726845
 21
1860.281568359543
 31
0.0
  0
LINE
  5
583
330
1F
100
AcDbEntity
  8
EDGES
100
AcDbLine
 10
1249.94421726845
 20
1860.281568359543
 30
0.0
 11
1249.942217268456
 21
1862.614568359536
 31
0.0
  0
LINE
  5
584
330
1F
100
AcDbEntity
  8
EDGES
100
AcDbLine
 10
1249.942217268456
 20
1862.614568359536
 30
0.0
 11
1249.928217268434
 21
1865.01656835954
 31
0.0
  0
LINE
  5
585
330
1F
100
AcDbEntity
  8
EDGES
100
AcDbLine
 10
1249.928217268434
 20
1865.01656835954
 30
0.0
 11
1249.891217268471
 21
1867.436568359541
 31
0.0
  0
LINE
  5
586
330
1F
100
AcDbEntity
  8
EDGES
100
AcDbLine
 10
1249.891217268471
 20
1867.436568359541
 30
0.0
 11
1249.819217268425
 21
1869.822568359542
 31
0.0
  0
LINE
  5
587
330
1F
100
AcDbEntity
  8
EDGES
100
AcDbLine
 10
1249.819217268425
 20
1869.822568359542
 30
0.0
 11
1249.700217268441
 21
1872.124568359542
 31
0.0
  0
LINE
  5
588
330
1F
100
AcDbEntity
  8
EDGES
100
AcDbLine
 10
1249.700217268441
 20
1872.124568359542
 30
0.0
 11
1249.522217268435
 21
1874.289568359533
 31
0.0
  0
LINE
  5
589
330
1F
100
AcDbEntity
  8
EDGES
100
AcDbLine
 10
1249.522217268435
 20
1874.289568359533
 30
0.0
 11
1249.274217268437
 21
1876.266568359544
 31
0.0
  0
LINE
  5
58B
330
1F
100
AcDbEntity
  8
EDGES
100
AcDbLine
 10
1248.944217268474
 20
1878.004568359533
 30
0.0
 11
1248.486217268436
 21
1879.47056835954
 31
0.0
  0
LINE
  5
58C
330
1F
100
AcDbEntity
  8
EDGES
100
AcDbLine
 10
1211.810217268437
 20
1820.507568359535
 30
0.0
 11
1224.58521726847
 21
1819.70056835954
 31
0.0
  0
LINE
  5
58D
330
1F
100
AcDbEntity
  8
EDGES
100
AcDbLine
 10
1211.810217268437
 20
1820.507568359535
 30
0.0
 11
1224.58521726847
 21
1819.70056835954
 31
0.0
  0
LINE
  5
58E
330
1F
100
AcDbEntity
  8
EDGES
100
AcDbLine
 10
1198.920217268466
 20
1821.308568359545
 30
0.0
 11
1211.810217268437
 21
1820.507568359535
 31
0.0
  0
LINE
  5
58F
330
1F
100
AcDbEntity
  8
EDGES
100
AcDbLine
 10
1198.920217268466
 20
1821.308568359545
 30
0.0
 11
1211.810217268437
 21
1820.507568359535
 31
0.0
  0
LINE
  5
590
330
1F
100
AcDbEntity
  8
EDGES
100
AcDbLine
 10
1224.58521726847
 20
1819.70056835954
 30
0.0
 11
1237.284217268468
 21
1818.890568359539
 31
0.0
  0
LINE
  5
591
330
1F
100
AcDbEntity
  8
EDGES
100
AcDbLine
 10
1237.284217268468
 20
1818.890568359539
 30
0.0
 11
1249.94421726845
 21
1818.07956835954
 31
0.0
  0
LINE
  5
592
330
1F
100
AcDbEntity
  8
EDGES
100
AcDbLine
 10
1224.58521726847
 20
1819.70056835954
 30
0.0
 11
1237.284217268468
 21
1818.890568359539
 31
0.0
  0
LINE
  5
593
330
1F
100
AcDbEntity
  8
EDGES
100
AcDbLine
 10
1237.284217268468
 20
1818.890568359539
 30
0.0
 11
1249.94421726845
 21
1818.07956835954
 31
0.0
  0
LINE
  5
594
330
1F
100
AcDbEntity
  8
EDGES
100
AcDbLine
 10
1249.94421726845
 20
1818.07956835954
 30
0.0
 11
1249.94421726845
 21
1821.391568359534
 31
0.0
  0
LINE
  5
595
330
1F
100
AcDbEntity
  8
EDGES
100
AcDbLine
 10
1249.94421726845
 20
1821.391568359534
 30
0.0
 11
1249.94421726845
 21
1824.680568359544
 31
0.0
  0
LINE
  5
596
330
1F
100
AcDbEntity
  8
EDGES
100
AcDbLine
 10
1249.94421726845
 20
1824.680568359544
 30
0.0
 11
1249.94421726845
 21
1827.923568359541
 31
0.0
  0
LINE
  5
597
330
1F
100
AcDbEntity
  8
EDGES
100
AcDbLine
 10
1249.94421726845
 20
1818.07956835954
 30
0.0
 11
1249.94421726845
 21
1821.391568359534
 31
0.0
  0
LINE
  5
598
330
1F
100
AcDbEntity
  8
EDGES
100
AcDbLine
 10
1249.94421726845
 20
1821.391568359534
 30
0.0
 11
1249.94421726845
 21
1824.680568359544
 31
0.0
  0
LINE
  5
599
330
1F
100
AcDbEntity
  8
EDGES
100
AcDbLine
 10
1249.94421726845
 20
1824.680568359544
 30
0.0
 11
1249.94421726845
 21
1827.923568359541
 31
0.0
  0
LINE
  5
59A
330
1F
100
AcDbEntity
  8
EDGES
100
AcDbLine
 10
1249.94421726845
 20
1831.095568359533
 30
0.0
 11
1249.94421726845
 21
1834.17156835954
 31
0.0
  0
LINE
  5
59B
330
1F
100
AcDbEntity
  8
EDGES
100
AcDbLine
 10
1249.94421726845
 20
1834.17156835954
 30
0.0
 11
1249.94421726845
 21
1837.129568359533
 31
0.0
  0
LINE
  5
59C
330
1F
100
AcDbEntity
  8
EDGES
100
AcDbLine
 10
1249.94421726845
 20
1837.129568359533
 30
0.0
 11
1249.94421726845
 21
1839.943568359533
 31
0.0
  0
LINE
  5
59D
330
1F
100
AcDbEntity
  8
EDGES
100
AcDbLine
 10
1249.94421726845
 20
1839.943568359533
 30
0.0
 11
1249.94421726845
 21
1842.591568359541
 31
0.0
  0
LINE
  5
59E
330
1F
100
AcDbEntity
  8
EDGES
100
AcDbLine
 10
1249.94421726845
 20
1842.591568359541
 30
0.0
 11
1249.94421726845
 21
1845.058568359537
 31
0.0
  0
LINE
  5
59F
330
1F
100
AcDbEntity
  8
EDGES
100
AcDbLine
 10
1249.94421726845
 20
1831.095568359533
 30
0.0
 11
1249.94421726845
 21
1834.17156835954
 31
0.0
  0
LINE
  5
5A0
330
1F
100
AcDbEntity
  8
EDGES
100
AcDbLine
 10
1249.94421726845
 20
1834.17156835954
 30
0.0
 11
1249.94421726845
 21
1837.129568359533
 31
0.0
  0
LINE
  5
5A1
330
1F
100
AcDbEntity
  8
EDGES
100
AcDbLine
 10
1249.94421726845
 20
1837.129568359533
 30
0.0
 11
1249.94421726845
 21
1839.943568359533
 31
0.0
  0
LINE
  5
5A2
330
1F
100
AcDbEntity
  8
EDGES
100
AcDbLine
 10
1249.94421726845
 20
1839.943568359533
 30
0.0
 11
1249.94421726845
 21
1842.591568359541
 31
0.0
  0
LINE
  5
5A3
330
1F
100
AcDbEntity
  8
EDGES
100
AcDbLine
 10
1249.94421726845
 20
1842.591568359541
 30
0.0
 11
1249.94421726845
 21
1845.058568359537
 31
0.0
  0
LINE
  5
5A4
330
1F
100
AcDbEntity
  8
EDGES
100
AcDbLine
 10
1249.94421726845
 20
1827.923568359541
 30
0.0
 11
1249.94421726845
 21
1831.095568359533
 31
0.0
  0
LINE
  5
5A5
330
1F
100
AcDbEntity
  8
EDGES
100
AcDbLine
 10
1249.94421726845
 20
1827.923568359541
 30
0.0
 11
1249.94421726845
 21
1831.095568359533
 31
0.0
  0
LWPOLYLINE
  5
5B4
330
1F
100
AcDbEntity
  8
EDGES
100
AcDbPolyline
 90
        2
 70
     0
 43
0.0
 10
599.9442172684732
 20
1843.079568359535
 10
669.7762172684358
 20
1842.960568359533
  0
LINE
  5
5B6
330
1F
100
AcDbEntity
  8
0
100
AcDbLine
 10
599.9442172684732
 20
1810.157916507689
 30
0.0
 11
599.9442172684732
 21
1843.079568359535
 31
0.0
  0
LINE
  5
5C6
330
1F
100
AcDbEntity
  8
0
 62
     4
100
AcDbLine
 10
664.9442172684732
 20
1558.450544913658
 30
0.0
 11
664.9442172684732
 21
1703.541004490785
 31
0.0
  0
LINE
  5
5D0
330
1F
100
AcDbEntity
  8
0
 62
     4
100
AcDbLine
 10
729.9442172684731
 20
1555.371591561237
 30
0.0
 11
729.9442172684731
 21
1706.619957843207
 31
0.0
  0
LINE
  5
5D1
330
1F
100
AcDbEntity
  8
0
 62
     4
100
AcDbLine
 10
794.9442172684732
 20
1554.155281770304
 30
0.0
 11
794.9442172684732
 21
1707.836267634139
 31
0.0
  0
LINE
  5
5D2
330
1F
100
AcDbEntity
  8
0
 62
     4
100
AcDbLine
 10
859.9442172684732
 20
1555.096310695191
 30
0.0
 11
859.9442172684732
 21
1706.895238709253
 31
0.0
  0
LINE
  5
5D3
330
1F
100
AcDbEntity
  8
0
 62
     4
100
AcDbLine
 10
924.9442172684732
 20
1559.193307881691
 30
0.0
 11
924.9442172684732
 21
1702.798241522753
 31
0.0
  0
LINE
  5
5D4
330
1F
100
AcDbEntity
  8
0
 62
     4
100
AcDbLine
 10
989.9442172684732
 20
1567.255122409086
 30
0.0
 11
989.9442172684732
 21
1694.736426995357
 31
0.0
  0
LINE
  5
5D5
330
1F
100
AcDbEntity
  8
0
 62
     4
100
AcDbLine
 10
1054.944217268473
 20
1579.342350238283
 30
0.0
 11
1054.944217268473
 21
1682.64919916616
 31
0.0
  0
LINE
  5
5D6
330
1F
100
AcDbEntity
  8
0
 62
     4
100
AcDbLine
 10
1119.944217268473
 20
1594.955619021397
 30
0.0
 11
1119.944217268473
 21
1667.035930383047
 31
0.0
  0
LINE
  5
5D7
330
1F
100
AcDbEntity
  8
0
 62
     4
100
AcDbLine
 10
1184.944217268473
 20
1613.23602840958
 30
0.0
 11
1184.944217268473
 21
1648.755520994864
 31
0.0
  0
LINE
  5
5D8
330
1F
100
AcDbEntity
  8
0
100
AcDbLine
 10
1249.944217268473
 20
1810.157916507688
 30
0.0
 11
1249.944217268473
 21
1818.079568359538
 31
0.0
  0
LINE
  5
5DA
330
1F
100
AcDbEntity
  8
0
100
AcDbLine
 10
579.9442172684733
 20
1810.157916507689
 30
0.0
 11
1261.196856520578
 21
1810.157916507689
 31
0.0
  0
LINE
  5
5DC
330
1F
100
AcDbEntity
  8
0
 62
     4
100
AcDbLine
 10
1244.944217268473
 20
1629.447350923089
 30
0.0
 11
1244.944217268473
 21
1632.544198481355
 31
0.0
  0
LINE
  5
5DD
330
1F
100
AcDbEntity
  8
0
 62
     4
100
AcDbLine
 10
664.9442172684732
 20
1810.157916507689
 30
0.0
 11
664.9442172684732
 21
1890.106404504805
 31
0.0
  0
LINE
  5
5DE
330
1F
100
AcDbEntity
  8
0
 62
     4
100
AcDbLine
 10
729.9442172684733
 20
1810.157916507689
 30
0.0
 11
729.9442172684734
 21
1898.099613511196
 31
0.0
  0
LINE
  5
5DF
330
1F
100
AcDbEntity
  8
0
 62
     4
100
AcDbLine
 10
794.9442172684732
 20
1810.157916507688
 30
0.0
 11
794.9442172684732
 21
1904.069684006167
 31
0.0
  0
LINE
  5
5E0
330
1F
100
AcDbEntity
  8
0
 62
     4
100
AcDbLine
 10
859.9442172684732
 20
1810.157916507688
 30
0.0
 11
859.9442172684732
 21
1908.1645000455
 31
0.0
  0
LINE
  5
5E1
330
1F
100
AcDbEntity
  8
0
 62
     4
100
AcDbLine
 10
924.9442172684734
 20
1810.157916507689
 30
0.0
 11
924.9442172684732
 21
1909.917529113991
 31
0.0
  0
LINE
  5
5E2
330
1F
100
AcDbEntity
  8
0
 62
     4
100
AcDbLine
 10
989.9442172684732
 20
1810.157916507689
 30
0.0
 11
989.9442172684732
 21
1909.050765192537
 31
0.0
  0
LINE
  5
5E3
330
1F
100
AcDbEntity
  8
0
 62
     4
100
AcDbLine
 10
1054.944217268473
 20
1810.157916507689
 30
0.0
 11
1054.944217268473
 21
1905.704727608797
 31
0.0
  0
LINE
  5
5E4
330
1F
100
AcDbEntity
  8
0
 62
     4
100
AcDbLine
 10
1119.944217268473
 20
1810.157916507689
 30
0.0
 11
1119.944217268473
 21
1900.04484229706
 31
0.0
  0
LINE
  5
5E5
330
1F
100
AcDbEntity
  8
0
 62
     4
100
AcDbLine
 10
1184.944217268473
 20
1810.157916507689
 30
0.0
 11
1184.944217268473
 21
1892.366286667262
 31
0.0
  0
LINE
  5
5E6
330
1F
100
AcDbEntity
  8
0
 62
     4
100
AcDbLine
 10
1244.944217268473
 20
1810.157916507688
 30
0.0
 11
1244.944217268473
 21
1882.470215389716
 31
0.0
  0
LWPOLYLINE
  5
5E7
330
1F
100
AcDbEntity
  8
EDGES
100
AcDbPolyline
 90
       33
 70
     0
 43
0.0
 10
599.9442172684732
 20
1698.990183836261
 10
618.3069413913789
 20
1700.364162370503
 10
636.7377570986061
 20
1701.696642972386
 10
655.6064854721036
 20
1702.971881182381
 10
675.1329166567857
 20
1704.161993230949
 10
695.5367639939172
 20
1705.242085242673
 10
717.0387987647717
 20
1706.182255993071
 10
739.8397259745845
 20
1706.955575201718
 10
763.8263873020945
 20
1707.522071243556
 10
788.6451711082751
 20
1707.833779662675
 10
813.9371280152269
 20
1707.84376937627
 10
839.3433307346956
 20
1707.501171187386
 10
864.5015580178139
 20
1706.761193954945
 10
889.0531996423671
 20
1705.575143603205
 10
912.7649601528213
 20
1703.917167000055
 10
935.6777102903832
 20
1701.812140425731
 10
957.8643055530372
 20
1699.288962917792
 10
979.3993410711214
 20
1696.37949737574
 10
1000.359207244453
 20
1693.113595089012
 10
1020.815570734071
 20
1689.52003101529
 10
1040.83767800504
 20
1685.632611504263
 10
1060.438494334613
 20
1681.487206583715
 10
1079.610075531696
 20
1677.126670381234
 10
1098.342448619923
 20
1672.59087559678
 10
1116.627758303235
 20
1667.921669633833
 10
1134.457063809787
 20
1663.159929516757
 10
1151.822247990579
 20
1658.3465905809
 10
1168.749788103248
 20
1653.507724050048
 10
1185.309566277063
 20
1648.648310505558
 10
1201.576707471218
 20
1643.773265058292
 10
1217.623429797497
 20
1638.884482269089
 10
1233.525041060895
 20
1633.986833986733
 10
1243.183441186252
 20
1630.995774702222
  0
LINE
  5
5E9
330
1F
100
AcDbEntity
  8
0
100
AcDbLine
 10
579.9442172684733
 20
1790.157916507689
 30
0.0
 11
1261.196856520578
 21
1790.157916507689
 31
0.0
  0
LINE
  5
5EC
330
1F
100
AcDbEntity
  8
0
100
AcDbLine
 10
579.9442172684733
 20
1790.157916507689
 30
0.0
 11
579.9442172684731
 21
1810.157916507689
 31
0.0
  0
LINE
  5
5ED
330
1F
100
AcDbEntity
  8
0
100
AcDbLine
 10
1261.196856520578
 20
1810.157916507689
 30
0.0
 11
1261.196856520578
 21
1790.157916507689
 31
0.0
  0
LWPOLYLINE
  5
5EE
330
1F
100
AcDbEntity
  8
EDGES
100
AcDbPolyline
 90
       33
 70
     0
 43
0.0
 10
599.9442172684732
 20
1563.001365568182
 10
618.3069413913789
 20
1561.62738703394
 10
636.737757098606
 20
1560.294906432058
 10
655.6064854721037
 20
1559.019668222063
 10
675.1329166567859
 20
1557.829556173495
 10
695.5367639939172
 20
1556.74946416177
 10
717.0387987647716
 20
1555.809293411372
 10
739.8397259745848
 20
1555.035974202725
 10
763.8263873020944
 20
1554.469478160887
 10
788.645171108275
 20
1554.157769741769
 10
813.9371280152269
 20
1554.147780028174
 10
839.3433307346956
 20
1554.490378217057
 10
864.5015580178139
 20
1555.230355449499
 10
889.0531996423673
 20
1556.416405801238
 10
912.7649601528213
 20
1558.074382404389
 10
935.6777102903832
 20
1560.179408978712
 10
957.8643055530365
 20
1562.702586486652
 10
979.399341071123
 20
1565.612052028704
 10
1000.359207244452
 20
1568.877954315431
 10
1020.815570734071
 20
1572.471518389153
 10
1040.83767800504
 20
1576.35893790018
 10
1060.438494334613
 20
1580.504342820728
 10
1079.610075531696
 20
1584.86487902321
 10
1098.342448619923
 20
1589.400673807664
 10
1116.627758303235
 20
1594.069879770611
 10
1134.457063809787
 20
1598.831619887687
 10
1151.822247990579
 20
1603.644958823544
 10
1168.749788103248
 20
1608.483825354396
 10
1185.309566277063
 20
1613.343238898886
 10
1201.576707471218
 20
1618.218284346152
 10
1217.623429797497
 20
1623.107067135355
 10
1233.525041060895
 20
1628.004715417711
 10
1243.183441186252
 20
1630.995774702222
  0
LWPOLYLINE
  5
5EF
330
1F
100
AcDbEntity
  8
EDGES
 62
     4
100
AcDbPolyline
 90
       33
 70
     0
 43
0.0
 10
603.9442172684732
 20
1562.702068247143
 10
603.9442172684732
 20
1634.18777470222
 10
603.9442172684732
 20
1637.361774702221
 10
603.9442172684732
 20
1640.503774702219
 10
603.9442172684732
 20
1643.595774702228
 10
603.9442172684732
 20
1646.62177470222
 10
603.9442172684732
 20
1649.566774702216
 10
603.9442172684732
 20
1652.413774702219
 10
603.9442172684732
 20
1655.145774702227
 10
603.9442172684732
 20
1657.746774702227
 10
603.9442172684732
 20
1660.201774702224
 10
603.9442172684732
 20
1662.491774702226
 10
603.9442172684732
 20
1664.613774702226
 10
603.9442172684732
 20
1666.578774702224
 10
603.9442172684732
 20
1668.400774702228
 10
603.9442172684732
 20
1670.09277470222
 10
603.9442172684732
 20
1671.66877470222
 10
603.9442172684732
 20
1673.142774702222
 10
603.9442172684732
 20
1674.526774702223
 10
603.9442172684732
 20
1675.834774702218
 10
603.9442172684732
 20
1677.080774702227
 10
603.9442172684732
 20
1678.27677470222
 10
603.9442172684732
 20
1679.437774702216
 10
603.9442172684732
 20
1680.568774702217
 10
603.9442172684732
 20
1681.672774702215
 10
603.9442172684732
 20
1682.753774702228
 10
603.9442172684732
 20
1683.814774702222
 10
603.9442172684732
 20
1684.857774702217
 10
603.9442172684732
 20
1685.885774702222
 10
603.9442172684732
 20
1686.901774702215
 10
603.9442172684732
 20
1687.908774702216
 10
603.9442172684732
 20
1688.908774702221
 10
603.9442172684732
 20
1699.2894811573
  0
LINE
  5
5F0
330
1F
100
AcDbEntity
  8
0
 62
     4
100
AcDbLine
 10
668.9442172684732
 20
1558.450544913658
 30
0.0
 11
668.9442172684732
 21
1703.541004490785
 31
0.0
  0
LINE
  5
5F1
330
1F
100
AcDbEntity
  8
0
 62
     4
100
AcDbLine
 10
733.9442172684731
 20
1555.371591561237
 30
0.0
 11
733.9442172684731
 21
1706.619957843207
 31
0.0
  0
LINE
  5
5F2
330
1F
100
AcDbEntity
  8
0
 62
     4
100
AcDbLine
 10
798.9442172684732
 20
1554.155281770304
 30
0.0
 11
798.9442172684732
 21
1707.836267634139
 31
0.0
  0
LINE
  5
5F7
330
1F
100
AcDbEntity
  8
0
 62
     4
100
AcDbLine
 10
603.9442172684732
 20
1880.137568359534
 30
0.0
 11
603.9442172684731
 21
1810.157916507689
 31
0.0
  0
LINE
  5
5F8
330
1F
100
AcDbEntity
  8
0
 62
     4
100
AcDbLine
 10
668.9442172684732
 20
1810.157916507689
 30
0.0
 11
668.9442172684732
 21
1890.106404504805
 31
0.0
  0
LINE
  5
5F9
330
1F
100
AcDbEntity
  8
0
 62
     4
100
AcDbLine
 10
733.9442172684733
 20
1810.157916507689
 30
0.0
 11
733.9442172684734
 21
1898.099613511196
 31
0.0
  0
LINE
  5
5FA
330
1F
100
AcDbEntity
  8
0
 62
     4
100
AcDbLine
 10
798.9442172684732
 20
1810.157916507688
 30
0.0
 11
798.9442172684732
 21
1904.069684006167
 31
0.0
  0
DIMENSION
  5
5FC
330
1F
100
AcDbEntity
  8
DIM
100
AcDbDimension
  2
*D2
 10
664.9442172684732
 20
1768.412883673699
 30
0.0
 11
632.4442172684732
 21
1770.287883673699
 31
0.0
 70
    32
  3
ISO-25
100
AcDbAlignedDimension
 13
599.9442172684732
 23
1810.157916507689
 33
0.0
 14
664.9442172684732
 24
1810.157916507689
 34
0.0
100
AcDbRotatedDimension
  0
DIMENSION
  5
60A
330
1F
100
AcDbEntity
  8
DIM
100
AcDbDimension
  2
*D3
 10
729.9442172684733
 20
1768.412883673699
 30
0.0
 11
697.4442172684732
 21
1770.287883673699
 31
0.0
 70
    32
  3
ISO-25
100
AcDbAlignedDimension
 13
664.9442172684732
 23
1810.157916507689
 33
0.0
 14
729.9442172684733
 24
1810.157916507689
 34
0.0
100
AcDbRotatedDimension
  0
DIMENSION
  5
617
330
1F
100
AcDbEntity
  8
DIM
100
AcDbDimension
  2
*D4
 10
794.9442172684732
 20
1768.412883673699
 30
0.0
 11
762.4442172684732
 21
1770.287883673699
 31
0.0
 70
    32
  3
ISO-25
100
AcDbAlignedDimension
 13
729.9442172684733
 23
1810.157916507689
 33
0.0
 14
794.9442172684732
 24
1810.157916507688
 34
0.0
100
AcDbRotatedDimension
  0
LINE
  5
624
330
1F
100
AcDbEntity
  8
0
 62
     4
100
AcDbLine
 10
855.9442172684732
 20
1555.096310695191
 30
0.0
 11
855.9442172684732
 21
1706.895238709253
 31
0.0
  0
LINE
  5
625
330
1F
100
AcDbEntity
  8
0
 62
     4
100
AcDbLine
 10
920.9442172684733
 20
1559.193307881691
 30
0.0
 11
920.9442172684733
 21
1702.798241522753
 31
0.0
  0
LINE
  5
626
330
1F
100
AcDbEntity
  8
0
 62
     4
100
AcDbLine
 10
985.9442172684733
 20
1567.255122409086
 30
0.0
 11
985.9442172684733
 21
1694.736426995357
 31
0.0
  0
LINE
  5
627
330
1F
100
AcDbEntity
  8
0
 62
     4
100
AcDbLine
 10
1050.944217268473
 20
1579.342350238283
 30
0.0
 11
1050.944217268473
 21
1682.64919916616
 31
0.0
  0
LINE
  5
628
330
1F
100
AcDbEntity
  8
0
 62
     4
100
AcDbLine
 10
1115.944217268473
 20
1594.955619021397
 30
0.0
 11
1115.944217268473
 21
1667.035930383047
 31
0.0
  0
LINE
  5
629
330
1F
100
AcDbEntity
  8
0
 62
     4
100
AcDbLine
 10
1180.944217268473
 20
1612.06224129879
 30
0.0
 11
1180.944217268473
 21
1649.929308105654
 31
0.0
  0
LINE
  5
62A
330
1F
100
AcDbEntity
  8
0
 62
     4
100
AcDbLine
 10
1248.944217268473
 20
1629.447350923089
 30
0.0
 11
1248.944217268473
 21
1632.544198481355
 31
0.0
  0
LINE
  5
62B
330
1F
100
AcDbEntity
  8
0
 62
     4
100
AcDbLine
 10
855.9442172684732
 20
1810.157916507688
 30
0.0
 11
855.9442172684732
 21
1908.1645000455
 31
0.0
  0
LINE
  5
62C
330
1F
100
AcDbEntity
  8
0
 62
     4
100
AcDbLine
 10
920.9442172684733
 20
1810.157916507689
 30
0.0
 11
920.9442172684733
 21
1909.917529113991
 31
0.0
  0
LINE
  5
62D
330
1F
100
AcDbEntity
  8
0
 62
     4
100
AcDbLine
 10
985.9442172684733
 20
1810.157916507689
 30
0.0
 11
985.9442172684733
 21
1909.050765192537
 31
0.0
  0
LINE
  5
62E
330
1F
100
AcDbEntity
  8
0
 62
     4
100
AcDbLine
 10
1050.944217268473
 20
1810.157916507689
 30
0.0
 11
1050.944217268473
 21
1905.704727608797
 31
0.0
  0
LINE
  5
62F
330
1F
100
AcDbEntity
  8
0
 62
     4
100
AcDbLine
 10
1115.944217268473
 20
1810.157916507689
 30
0.0
 11
1115.944217268473
 21
1900.04484229706
 31
0.0
  0
LINE
  5
630
330
1F
100
AcDbEntity
  8
0
 62
     4
100
AcDbLine
 10
1180.944217268473
 20
1810.157916507689
 30
0.0
 11
1180.944217268473
 21
1892.366286667262
 31
0.0
  0
LINE
  5
631
330
1F
100
AcDbEntity
  8
0
 62
     4
100
AcDbLine
 10
1240.944217268473
 20
1810.157916507688
 30
0.0
 11
1240.944217268473
 21
1882.470215389716
 31
0.0
  0
DIMENSION
  5
632
330
1F
100
AcDbEntity
  8
DIM
100
AcDbDimension
  2
*D5
 10
859.9442172684732
 20
1768.412883673699
 30
0.0
 11
827.4442172684732
 21
1770.287883673699
 31
0.0
 70
    32
  3
ISO-25
100
AcDbAlignedDimension
 13
794.9442172684732
 23
1810.157916507688
 33
0.0
 14
859.9442172684732
 24
1810.157916507689
 34
0.0
100
AcDbRotatedDimension
  0
DIMENSION
  5
63F
330
1F
100
AcDbEntity
  8
DIM
100
AcDbDimension
  2
*D6
 10
924.9442172684734
 20
1768.412883673699
 30
0.0
 11
892.4442172684733
 21
1770.287883673699
 31
0.0
 70
    32
  3
ISO-25
100
AcDbAlignedDimension
 13
859.9442172684732
 23
1810.157916507689
 33
0.0
 14
924.9442172684734
 24
1810.157916507689
 34
0.0
100
AcDbRotatedDimension
  0
DIMENSION
  5
64C
330
1F
100
AcDbEntity
  8
DIM
100
AcDbDimension
  2
*D7
 10
989.9442172684732
 20
1768.412883673699
 30
0.0
 11
957.4442172684733
 21
1770.287883673699
 31
0.0
 70
    32
  3
ISO-25
100
AcDbAlignedDimension
 13
924.9442172684734
 23
1810.157916507689
 33
0.0
 14
989.9442172684732
 24
1810.157916507689
 34
0.0
100
AcDbRotatedDimension
  0
DIMENSION
  5
659
330
1F
100
AcDbEntity
  8
DIM
100
AcDbDimension
  2
*D8
 10
1054.944217268473
 20
1768.412883673699
 30
0.0
 11
1022.444217268473
 21
1770.287883673699
 31
0.0
 70
    32
  3
ISO-25
100
AcDbAlignedDimension
 13
989.9442172684732
 23
1810.157916507689
 33
0.0
 14
1054.944217268473
 24
1810.157916507689
 34
0.0
100
AcDbRotatedDimension
  0
DIMENSION
  5
666
330
1F
100
AcDbEntity
  8
DIM
100
AcDbDimension
  2
*D9
 10
1119.944217268473
 20
1768.412883673699
 30
0.0
 11
1087.444217268473
 21
1770.287883673699
 31
0.0
 70
    32
  3
ISO-25
100
AcDbAlignedDimension
 13
1054.944217268473
 23
1810.157916507689
 33
0.0
 14
1119.944217268473
 24
1810.157916507689
 34
0.0
100
AcDbRotatedDimension
  0
DIMENSION
  5
673
330
1F
100
AcDbEntity
  8
DIM
100
AcDbDimension
  2
*D10
 10
1184.944217268473
 20
1768.412883673699
 30
0.0
 11
1152.444217268473
 21
1770.287883673699
 31
0.0
 70
    32
  3
ISO-25
100
AcDbAlignedDimension
 13
1119.944217268473
 23
1809.532916507689
 33
0.0
 14
1184.944217268473
 24
1810.157916507689
 34
0.0
100
AcDbRotatedDimension
  0
DIMENSION
  5
680
330
1F
100
AcDbEntity
  8
DIM
100
AcDbDimension
  2
*D11
 10
1244.944217268473
 20
1768.412883673699
 30
0.0
 11
1214.944217268473
 21
1770.314346936464
 31
0.0
 70
    32
  3
ISO-25
100
AcDbAlignedDimension
 13
1184.944217268473
 23
1809.532916507689
 33
0.0
 14
1244.944217268473
 24
1810.157916507688
 34
0.0
100
AcDbRotatedDimension
  0
DIMENSION
  5
68D
330
1F
100
AcDbEntity
  8
DIM
100
AcDbDimension
  2
*D12
 10
1249.944217268473
 20
1768.412883673699
 30
0.0
 11
1247.444217268473
 21
1770.287883673699
 31
0.0
 70
    32
  3
ISO-25
100
AcDbAlignedDimension
 13
1244.944217268473
 23
1810.157916507689
 33
0.0
 14
1249.944217268473
 24
1810.157916507688
 34
0.0
100
AcDbRotatedDimension
  0
LINE
  5
6AC
330
1F
100
AcDbEntity
  8
DIM
100
AcDbLine
 10
604.441567019704
 20
1232.832073994891
 30
0.0
 11
901.441567019704
 21
1232.832073994891
 31
0.0
  0
LINE
  5
6AD
330
1F
100
AcDbEntity
  8
DIM
100
AcDbLine
 10
901.441567019704
 20
1232.832073994891
 30
0.0
 11
901.441567019704
 21
1442.832073994891
 31
0.0
  0
LINE
  5
6AE
330
1F
100
AcDbEntity
  8
DIM
100
AcDbLine
 10
901.441567019704
 20
1442.832073994891
 30
0.0
 11
604.4415670197038
 21
1442.832073994891
 31
0.0
  0
LINE
  5
6AF
330
1F
100
AcDbEntity
  8
DIM
100
AcDbLine
 10
604.441567019704
 20
1232.832073994891
 30
0.0
 11
604.4415670197038
 21
1442.832073994891
 31
0.0
  0
LINE
  5
6B0
330
1F
100
AcDbEntity
  8
DIM
100
AcDbLine
 10
960.3862101726774
 20
1232.832073994891
 30
0.0
 11
960.3862101726772
 21
1442.832073994891
 31
0.0
  0
LINE
  5
6B1
330
1F
100
AcDbEntity
  8
DIM
100
AcDbLine
 10
960.3862101726774
 20
1232.832073994891
 30
0.0
 11
1257.386210172677
 21
1232.832073994891
 31
0.0
  0
LINE
  5
6B2
330
1F
100
AcDbEntity
  8
DIM
100
AcDbLine
 10
1257.386210172677
 20
1232.832073994891
 30
0.0
 11
1257.386210172677
 21
1442.832073994891
 31
0.0
  0
LINE
  5
6B3
330
1F
100
AcDbEntity
  8
DIM
100
AcDbLine
 10
1257.386210172677
 20
1442.832073994891
 30
0.0
 11
960.3862101726772
 21
1442.832073994891
 31
0.0
  0
LWPOLYLINE
  5
6CA
330
1F
100
AcDbEntity
  8
ST2
100
AcDbPolyline
 90
       33
 70
     0
 43
0.0
 10
738.5983049645288
 20
1383.475120324228
 10
738.5913049645164
 20
1382.643120324291
 10
738.5843049645041
 20
1381.812120324285
 10
738.5783049645101
 20
1380.981120324047
 10
738.5713049644977
 20
1380.152120324369
 10
738.5653049645038
 20
1379.324120324157
 10
738.5583049644915
 20
1378.497120324341
 10
738.5513049645083
 20
1377.673120324319
 10
738.5453049645143
 20
1376.85212032409
 10
738.5393049644912
 20
1376.033120324189
 10
738.532304964508
 20
1375.218120324245
 10
738.526304964485
 20
1374.406120324326
 10
738.5193049645017
 20
1373.598120324133
 10
738.5133049645077
 20
1372.795120324293
 10
738.5073049645138
 20
1371.997120324341
 10
738.5003049645015
 20
1371.203120324347
 10
738.4943049645076
 20
1370.416120324336
 10
738.4883049645136
 20
1369.634120324213
 10
738.4823049644905
 20
1368.858120324142
 10
738.4763049644966
 20
1368.089120324055
 10
738.4703049645026
 20
1367.328120324114
 10
738.465304964498
 20
1366.573120324226
 10
738.459304964504
 20
1365.827120324183
 10
738.4533049645101
 20
1365.088120324124
 10
738.4483049645055
 20
1364.358120324142
 10
738.4423049645115
 20
1363.637120324239
 10
738.4373049645069
 20
1362.925120324181
 10
738.4323049645022
 20
1362.223120324133
 10
738.4273049645266
 20
1361.530120324162
 10
738.4223049644929
 20
1360.848120324133
 10
738.4173049645173
 20
1360.177120324043
 10
738.4123049645126
 20
1359.517120324127
 10
738.4083049644973
 20
1358.868120324151
  0
LWPOLYLINE
  5
6CB
330
1F
100
AcDbEntity
  8
ST2
100
AcDbPolyline
 90
       33
 70
     0
 43
0.0
 10
735.6903049645039
 20
1358.868120324151
 10
735.6863049645176
 20
1359.517120324127
 10
735.6813049645129
 20
1360.177120324043
 10
735.6763049645082
 20
1360.848120324133
 10
735.6713049645036
 20
1361.530120324162
 10
735.6663049644989
 20
1362.223120324133
 10
735.6613049645233
 20
1362.925120324181
 10
735.6563049644896
 20
1363.637120324239
 10
735.6503049645247
 20
1364.358120324142
 10
735.645304964491
 20
1365.088120324124
 10
735.6393049644971
 20
1365.827120324183
 10
735.6333049645031
 20
1366.573120324226
 10
735.6283049644985
 20
1367.328120324114
 10
735.6223049645045
 20
1368.089120324055
 10
735.6163049645106
 20
1368.858120324142
 10
735.6103049644875
 20
1369.634120324213
 10
735.6043049645227
 20
1370.416120324336
 10
735.5983049644996
 20
1371.203120324347
 10
735.5913049645164
 20
1371.997120324341
 10
735.5853049644934
 20
1372.795120324293
 10
735.5793049645285
 20
1373.598120324133
 10
735.5723049645161
 20
1374.406120324326
 10
735.5663049644931
 20
1375.218120324245
 10
735.5593049645099
 20
1376.033120324189
 10
735.5533049644868
 20
1376.85212032409
 10
735.547304964522
 20
1377.673120324319
 10
735.5403049645096
 20
1378.497120324341
 10
735.5333049644973
 20
1379.324120324157
 10
735.5273049645034
 20
1380.152120324369
 10
735.520304964491
 20
1380.981120324047
 10
735.5143049645262
 20
1381.812120324285
 10
735.5073049645138
 20
1382.643120324291
 10
735.5003049645306
 20
1383.475120324228
  0
LWPOLYLINE
  5
6CC
330
1F
100
AcDbEntity
  8
ST2
100
AcDbPolyline
 90
       27
 70
     0
 43
0.0
 10
738.4083049644973
 20
1358.868120324151
 10
738.3943049645308
 20
1356.989120324194
 10
738.3813049644954
 20
1355.200120324321
 10
738.3683049644892
 20
1353.485120324237
 10
738.355304964512
 20
1351.828120324114
 10
738.343304964495
 20
1350.210120324097
 10
738.3293049644994
 20
1348.616120324289
 10
738.3153049645329
 20
1347.030120324163
 10
738.3003049644899
 20
1345.43512032419
 10
738.2833049645264
 20
1343.814120324148
 10
738.2643049644971
 20
1342.152120324369
 10
738.2443049645075
 20
1340.432120324397
 10
738.2203049645027
 20
1338.653120324067
 10
738.1933049645008
 20
1336.835120324097
 10
738.160304964505
 20
1335.002120324229
 10
738.1213049644862
 20
1333.176120324112
 10
738.0743049644948
 20
1331.381120324187
 10
738.0193049645018
 20
1329.639120324101
 10
737.9563049645071
 20
1327.974120324064
 10
737.8843049644924
 20
1326.408120324189
 10
737.8053049644945
 20
1324.964120324287
 10
737.7173049645057
 20
1323.665120324172
 10
737.6233049644938
 20
1322.531120324094
 10
737.5183049645125
 20
1321.563120324217
 10
737.3953049645201
 20
1320.748120324273
 10
737.2563049645245
 20
1320.072120324295
 10
737.0493049645006
 20
1319.386120324308
  0
LWPOLYLINE
  5
6CD
330
1F
100
AcDbEntity
  8
ST2
100
AcDbPolyline
 90
       27
 70
     0
 43
0.0
 10
737.0493049645006
 20
1319.386120324308
 10
736.8423049645057
 20
1320.072120324295
 10
736.7033049645101
 20
1320.748120324273
 10
736.5803049644887
 20
1321.563120324217
 10
736.4753049645074
 20
1322.531120324094
 10
736.3813049645245
 20
1323.665120324172
 10
736.2933049645066
 20
1324.964120324287
 10
736.2143049645087
 20
1326.408120324189
 10
736.1423049645232
 20
1327.974120324064
 10
736.0793049644994
 20
1329.639120324101
 10
736.0243049645064
 20
1331.381120324187
 10
735.977304964515
 20
1333.176120324112
 10
735.9383049644962
 20
1335.002120324229
 10
735.9053049645295
 20
1336.835120324097
 10
735.8783049644984
 20
1338.653120324067
 10
735.8543049644936
 20
1340.432120324397
 10
735.8343049645041
 20
1342.152120324369
 10
735.815304964533
 20
1343.814120324148
 10
735.7983049645113
 20
1345.43512032419
 10
735.7833049645265
 20
1347.030120324163
 10
735.7693049645018
 20
1348.616120324289
 10
735.7553049645062
 20
1350.210120324097
 10
735.7433049645183
 20
1351.828120324114
 10
735.7303049645119
 20
1353.485120324237
 10
735.7173049645057
 20
1355.200120324321
 10
735.7043049645285
 20
1356.989120324194
 10
735.6903049645039
 20
1358.868120324151
  0
LINE
  5
6CF
330
1F
100
AcDbEntity
  8
ST1
100
AcDbLine
 10
735.5003049645306
 20
1383.475120324228
 30
0.0
 11
738.5983049645288
 21
1383.475120324228
 31
0.0
  0
LINE
  5
6D4
330
1F
100
AcDbEntity
  8
ST1
100
AcDbLine
 10
738.5983049645288
 20
1383.475120324228
 30
0.0
 11
738.5983049645288
 21
1391.717120324049
 31
0.0
  0
LINE
  5
6D5
330
1F
100
AcDbEntity
  8
ST1
100
AcDbLine
 10
735.5003049645306
 20
1383.475120324228
 30
0.0
 11
735.5003049645306
 21
1391.717120324049
 31
0.0
  0
LWPOLYLINE
  5
6DC
330
1F
100
AcDbEntity
  8
GRID
100
AcDbPolyline
 90
        2
 70
     0
 43
0.0
 10
1383.557860134188
 20
1779.698129376805
 10
1444.733400078544
 20
1779.698129376805
  0
LWPOLYLINE
  5
6DD
330
1F
100
AcDbEntity
  8
EDGES
100
AcDbPolyline
 90
       33
 70
     0
 43
0.0
 10
1410.330337807567
 20
1843.878129376973
 10
1410.330337807567
 20
1817.821129376944
 10
1410.330337807567
 20
1816.045129377106
 10
1410.330337807567
 20
1814.343129377057
 10
1410.330337807567
 20
1812.699129376969
 10
1410.330337807567
 20
1811.09612937685
 10
1410.330337807567
 20
1809.518129377104
 10
1410.330337807567
 20
1807.947129377107
 10
1410.330337807567
 20
1806.369129376895
 10
1410.330337807567
 20
1804.766129377009
 10
1410.330337807567
 20
1803.123129376852
 10
1410.330337807567
 20
1801.422129376968
 10
1410.330337807567
 20
1799.663129377122
 10
1410.330337807567
 20
1797.865129376938
 10
1410.330337807567
 20
1796.050129376994
 10
1410.330337807567
 20
1794.239129376774
 10
1410.330337807567
 20
1792.455129377022
 10
1410.330337807567
 20
1790.718129377057
 10
1410.330337807567
 20
1789.050129376994
 10
1410.330337807567
 20
1787.474129377109
 10
1410.330337807567
 20
1786.011129376888
 10
1410.330337807567
 20
1784.682129376977
 10
1410.330337807567
 20
1783.507129376931
 10
1410.330337807567
 20
1782.478129376833
 10
1410.330337807567
 20
1781.569129377081
 10
1410.330337807567
 20
1780.753129376973
 10
1410.330337807567
 20
1780.005129376835
 10
1410.330337807567
 20
1779.298129376899
 10
1410.330337807567
 20
1778.60612937686
 10
1410.330337807567
 20
1777.902129376949
 10
1410.330337807567
 20
1777.160129376863
 10
1410.330337807567
 20
1776.354129376997
 10
1410.330337807567
 20
1775.458129376815
  0
LWPOLYLINE
  5
6DE
330
1F
100
AcDbEntity
  8
ST2
100
AcDbPolyline
 90
       33
 70
     0
 43
0.0
 10
1411.879337807596
 20
1843.878129376973
 10
1411.872337807583
 20
1843.046129377037
 10
1411.865337807571
 20
1842.215129377031
 10
1411.859337807577
 20
1841.384129376793
 10
1411.852337807565
 20
1840.555129377115
 10
1411.846337807571
 20
1839.727129376903
 10
1411.839337807559
 20
1838.900129377087
 10
1411.832337807575
 20
1838.076129377065
 10
1411.826337807581
 20
1837.255129376836
 10
1411.820337807558
 20
1836.436129376934
 10
1411.813337807575
 20
1835.62112937699
 10
1411.807337807552
 20
1834.809129377072
 10
1411.800337807569
 20
1834.001129376878
 10
1411.794337807575
 20
1833.198129377039
 10
1411.788337807581
 20
1832.400129377087
 10
1411.781337807568
 20
1831.606129377092
 10
1411.775337807575
 20
1830.819129377081
 10
1411.769337807581
 20
1830.037129376958
 10
1411.763337807558
 20
1829.261129376888
 10
1411.757337807564
 20
1828.4921293768
 10
1411.75133780757
 20
1827.73112937686
 10
1411.746337807565
 20
1826.976129376971
 10
1411.740337807571
 20
1826.230129376929
 10
1411.734337807577
 20
1825.491129376869
 10
1411.729337807573
 20
1824.761129376888
 10
1411.723337807579
 20
1824.040129376984
 10
1411.718337807574
 20
1823.328129376927
 10
1411.713337807569
 20
1822.626129376878
 10
1411.708337807594
 20
1821.933129376908
 10
1411.70333780756
 20
1821.251129376878
 10
1411.698337807584
 20
1820.580129376789
 10
1411.69333780758
 20
1819.920129376873
 10
1411.689337807564
 20
1819.271129376897
  0
LWPOLYLINE
  5
6DF
330
1F
100
AcDbEntity
  8
ST2
100
AcDbPolyline
 90
       33
 70
     0
 43
0.0
 10
1408.971337807571
 20
1819.271129376897
 10
1408.967337807585
 20
1819.920129376873
 10
1408.96233780758
 20
1820.580129376789
 10
1408.957337807575
 20
1821.251129376878
 10
1408.952337807571
 20
1821.933129376908
 10
1408.947337807566
 20
1822.626129376878
 10
1408.94233780759
 20
1823.328129376927
 10
1408.937337807557
 20
1824.040129376984
 10
1408.931337807592
 20
1824.761129376888
 10
1408.926337807558
 20
1825.491129376869
 10
1408.920337807564
 20
1826.230129376929
 10
1408.91433780757
 20
1826.976129376971
 10
1408.909337807566
 20
1827.73112937686
 10
1408.903337807571
 20
1828.4921293768
 10
1408.897337807577
 20
1829.261129376888
 10
1408.891337807554
 20
1830.037129376958
 10
1408.88533780759
 20
1830.819129377081
 10
1408.879337807567
 20
1831.606129377092
 10
1408.872337807584
 20
1832.400129377087
 10
1408.866337807561
 20
1833.198129377039
 10
1408.860337807595
 20
1834.001129376878
 10
1408.853337807583
 20
1834.809129377072
 10
1408.84733780756
 20
1835.62112937699
 10
1408.840337807577
 20
1836.436129376934
 10
1408.834337807554
 20
1837.255129376836
 10
1408.828337807589
 20
1838.076129377065
 10
1408.821337807577
 20
1838.900129377087
 10
1408.814337807564
 20
1839.727129376903
 10
1408.80833780757
 20
1840.555129377115
 10
1408.801337807558
 20
1841.384129376793
 10
1408.795337807593
 20
1842.215129377031
 10
1408.788337807581
 20
1843.046129377037
 10
1408.781337807598
 20
1843.878129376973
  0
LWPOLYLINE
  5
6E0
330
1F
100
AcDbEntity
  8
ST2
100
AcDbPolyline
 90
       27
 70
     0
 43
0.0
 10
1410.330337807567
 20
1779.789129377053
 10
1410.123337807573
 20
1780.47512937704
 10
1409.984337807577
 20
1781.151129377018
 10
1409.861337807556
 20
1781.966129376962
 10
1409.756337807574
 20
1782.934129376839
 10
1409.662337807592
 20
1784.068129376918
 10
1409.574337807574
 20
1785.367129377033
 10
1409.495337807576
 20
1786.811129376934
 10
1409.42333780759
 20
1788.37712937681
 10
1409.360337807567
 20
1790.042129376847
 10
1409.305337807573
 20
1791.784129376932
 10
1409.258337807582
 20
1793.579129376858
 10
1409.219337807563
 20
1795.405129376975
 10
1409.186337807597
 20
1797.238129376843
 10
1409.159337807565
 20
1799.056129376813
 10
1409.135337807561
 20
1800.835129377143
 10
1409.115337807571
 20
1802.555129377115
 10
1409.0963378076
 20
1804.217129376893
 10
1409.079337807578
 20
1805.838129376936
 10
1409.064337807594
 20
1807.433129376908
 10
1409.050337807569
 20
1809.019129377035
 10
1409.036337807573
 20
1810.613129376843
 10
1409.024337807585
 20
1812.23112937686
 10
1409.011337807579
 20
1813.888129376983
 10
1408.998337807573
 20
1815.603129377066
 10
1408.985337807596
 20
1817.39212937694
 10
1408.971337807571
 20
1819.271129376897
  0
LWPOLYLINE
  5
6E1
330
1F
100
AcDbEntity
  8
ST2
100
AcDbPolyline
 90
       27
 70
     0
 43
0.0
 10
1411.689337807564
 20
1819.271129376897
 10
1411.675337807598
 20
1817.39212937694
 10
1411.662337807563
 20
1815.603129377066
 10
1411.649337807556
 20
1813.888129376983
 10
1411.636337807579
 20
1812.23112937686
 10
1411.624337807562
 20
1810.613129376843
 10
1411.610337807566
 20
1809.019129377035
 10
1411.5963378076
 20
1807.433129376908
 10
1411.581337807557
 20
1805.838129376936
 10
1411.564337807593
 20
1804.217129376893
 10
1411.545337807564
 20
1802.555129377115
 10
1411.525337807574
 20
1800.835129377143
 10
1411.50133780757
 20
1799.056129376813
 10
1411.474337807568
 20
1797.238129376843
 10
1411.441337807572
 20
1795.405129376975
 10
1411.402337807553
 20
1793.579129376858
 10
1411.355337807562
 20
1791.784129376932
 10
1411.300337807569
 20
1790.042129376847
 10
1411.237337807574
 20
1788.37712937681
 10
1411.165337807559
 20
1786.811129376934
 10
1411.086337807561
 20
1785.367129377033
 10
1410.998337807573
 20
1784.068129376918
 10
1410.904337807561
 20
1782.934129376839
 10
1410.79933780758
 20
1781.966129376962
 10
1410.676337807587
 20
1781.151129377018
 10
1410.537337807592
 20
1780.47512937704
 10
1410.330337807567
 20
1779.789129377053
  0
LINE
  5
6E2
330
1F
100
AcDbEntity
  8
ST1
100
AcDbLine
 10
1408.781337807598
 20
1843.878129376973
 30
0.0
 11
1411.879337807596
 21
1843.878129376973
 31
0.0
  0
TEXT
  5
701
330
1F
100
AcDbEntity
  8
0
100
AcDbText
 10
1100.321184826175
 20
1079.737239689456
 30
0.0
 40
4.0
  1
Diseño: Luis Pardo
100
AcDbText
  0
LINE
  5
702
330
1F
100
AcDbEntity
  8
0
100
AcDbLine
 10
1095.95889463419
 20
1072.472689384462
 30
0.0
 11
1261.632213296262
 21
1072.472689384462
 31
0.0
  0
LINE
  5
703
330
1F
100
AcDbEntity
  8
0
100
AcDbLine
 10
1095.95889463419
 20
1090.634062035519
 30
0.0
 11
1261.632213296262
 21
1090.634062035519
 31
0.0
  0
LINE
  5
704
330
1F
100
AcDbEntity
  8
0
100
AcDbLine
 10
1095.95889463419
 20
1109.885114639469
 30
0.0
 11
1261.632213296262
 21
1109.885114639469
 31
0.0
  0
LINE
  5
705
330
1F
100
AcDbEntity
  8
0
100
AcDbLine
 10
1095.95889463419
 20
1126.593577229528
 30
0.0
 11
1261.632213296262
 21
1126.593577229528
 31
0.0
  0
LWPOLYLINE
  5
706
330
1F
100
AcDbEntity
  8
0
100
AcDbPolyline
 90
        4
 70
     1
 43
0.0
 10
1261.632213296262
 20
1057.23017024517
 10
1095.95889463419
 20
1057.23017024517
 10
1095.95889463419
 20
1143.302037745301
 10
1261.632213296262
 20
1143.302037745301
  0
IMAGE
  5
707
330
1F
100
AcDbEntity
  8
0
 92
      140
310
8C000000010000008400000006000000050000000AC542C04C1F9140FA6F48E4EB56914000000000000000000AC542C04C1F914041A3B75AE4DC914000000000000000009B426BBB23A0914041A3B75AE4DC914000000000000000009B426BBB23A09140FA6F48E4EB56914000000000000000000AC542C04C1F9140FA6F48
310
E4EB5691400000000000000000
100
AcDbRasterImage
 90
        0
 10
1095.82495216682
 20
1109.730363017878
 30
0.0
 11
0.1425218693246421
 21
0.0
 31
0.0
 12
0.0
 22
0.1425218693246421
 32
0.0
 13
226.0
 23
235.0
340
6FE
 70
     7
280
     0
281
    50
282
    50
283
     0
360
708
 71
     1
 91
        2
 14
-0.5
 24
-0.5
 14
225.4999999999999
 24
234.5
  0
TEXT
  5
709
330
1F
100
AcDbEntity
  8
0
100
AcDbText
 10
1136.074612296183
 20
1096.634592905064
 30
0.0
 40
8.0
  1
Cuadernas de Construcción
100
AcDbText
  0
TEXT
  5
70A
330
1F
100
AcDbEntity
  8
0
100
AcDbText
 10
1158.297577582103
 20
1116.059980843
 30
0.0
 40
6.0
  1
CANIBAL BOATS
100
AcDbText
  0
TEXT
  5
70B
330
1F
100
AcDbEntity
  8
0
100
AcDbText
 10
1193.419289810962
 20
1078.647555587993
 30
0.0
 40
4.0
  1
Septiembre 2006
100
AcDbText
  0
LINE
  5
70C
330
1F
100
AcDbEntity
  8
0
100
AcDbLine
 10
1181.750595605824
 20
1090.634062035519
 30
0.0
 11
1181.750595605824
 21
1072.472689384462
 31
0.0
  0
TEXT
  5
70D
330
1F
100
AcDbEntity
  8
0
100
AcDbText
 10
1160.86341046393
 20
1132.041987365417
 30
0.0
 40
5.0
  1
ALCARAVÁN  RG65
100
AcDbText
  0
LINE
  5
71A
330
1F
100
AcDbEntity
  8
ST1
 62
     4
100
AcDbLine
 10
1244.944217268472
 20
1882.470215389716
 30
0.0
 11
1240.944217268473
 21
1882.470215389716
 31
0.0
  0
LINE
  5
71C
330
1F
100
AcDbEntity
  8
ST1
 62
     4
100
AcDbLine
 10
1244.944217268473
 20
1632.544198481355
 30
0.0
 11
1248.944217268473
 21
1632.544198481355
 31
0.0
  0
LINE
  5
71D
330
1F
100
AcDbEntity
  8
ST1
 62
     4
100
AcDbLine
 10
1244.944217268473
 20
1629.447350923089
 30
0.0
 11
1248.944217268473
 21
1629.447350923089
 31
0.0
  0
LINE
  5
71E
330
1F
100
AcDbEntity
  8
ST1
100
AcDbLine
 10
599.9442172684732
 20
1700.995774702215
 30
0.0
 11
599.9442172684732
 21
1698.990183836261
 31
0.0
  0
LINE
  5
71F
330
1F
100
AcDbEntity
  8
ST1
100
AcDbLine
 10
599.9442172684732
 20
1560.995774702228
 30
0.0
 11
599.9442172684732
 21
1563.001365568182
 31
0.0
  0
TEXT
  5
722
330
1F
100
AcDbEntity
  8
ST1
100
AcDbText
 10
606.6934424894675
 20
1516.411993159076
 30
0.0
 40
10.0
  1
Cuadernas de construcción rebajadas 2 mm para forrar el casco con madera de balsa de 2mm.
100
AcDbText
  0
TEXT
  5
78A
330
1F
100
AcDbEntity
  8
ST1
100
AcDbText
 10
606.6934403170994
 20
1490.068782191411
 30
0.0
 40
10.0
  1
Cuadernas de construcción en balsa de 4 mm
100
AcDbText
  0
TEXT
  5
78E
330
1F
100
AcDbEntity
  8
ST1
100
AcDbText
 10
698.3220866051379
 20
1407.248484425685
 30
0.0
 40
10.0
  1
línea de base
100
AcDbText
  0
LINE
  5
78F
330
1F
100
AcDbEntity
  8
DIM
100
AcDbLine
 10
693.4197210490602
 20
1404.799302481098
 30
0.0
 11
766.9551870112755
 21
1404.799302481098
 31
0.0
  0
LINE
  5
790
330
1F
100
AcDbEntity
  8
DIM
100
AcDbLine
 10
766.9551870112755
 20
1404.799302481098
 30
0.0
 11
784.4636304604246
 21
1393.952927745277
 31
0.0
  0
LINE
  5
791
330
1F
100
AcDbEntity
  8
DIM
100
AcDbLine
 10
1043.593829141406
 20
1399.754480724286
 30
0.0
 11
1117.129295103621
 21
1399.754480724286
 31
0.0
  0
TEXT
  5
792
330
1F
100
AcDbEntity
  8
ST1
100
AcDbText
 10
1048.496194697483
 20
1402.203662668874
 30
0.0
 40
10.0
  1
línea de base
100
AcDbText
  0
LINE
  5
793
330
1F
100
AcDbEntity
  8
DIM
100
AcDbLine
 10
1117.129295103621
 20
1399.754480724286
 30
0.0
 11
1134.63773855277
 21
1388.908105988465
 31
0.0
  0
TEXT
  5
794
330
1F
100
AcDbEntity
  8
ST1
100
AcDbText
 10
927.373331122208
 20
1796.199760520288
 30
0.0
 40
10.0
  1
línea de base
100
AcDbText
  0
LINE
  5
795
330
1F
100
AcDbEntity
  8
DIM
 62
     6
100
AcDbLine
 10
926.7422147619104
 20
1792.172621887529
 30
0.0
 11
985.1644728867508
 21
1792.172621887529
 31
0.0
  0
LINE
  5
796
330
1F
100
AcDbEntity
  8
DIM
 62
     6
100
AcDbLine
 10
985.1644728867508
 20
1792.172621887529
 30
0.0
 11
1004.454840315757
 21
1809.795132422215
 31
0.0
  0
TEXT
  5
7AB
330
1F
100
AcDbEntity
  8
DIM
 62
     7
100
AcDbText
 10
607.1739394638493
 20
1462.650182536648
 30
0.0
 40
10.0
  1
Construcción en fibra: 2 capas de f.v. de 160gr/m^ 2
100
AcDbText
  0
LINE
  5
7B0
330
1F
100
AcDbEntity
  8
DIM
 62
     7
100
AcDbLine
 10
1248.944217268474
 20
1878.004568359533
 30
0.0
 11
1249.274217268437
 21
1876.266568359544
 31
0.0
  0
ENDSEC
  0
SECTION
  2
OBJECTS
  0
DICTIONARY
  5
C
330
0
100
AcDbDictionary
  3
ACAD_GROUP
350
D
  3
ACAD_IMAGE_DICT
350
6FD
  3
ACAD_IMAGE_VARS
350
700
  3
ACAD_LAYOUT
350
1A
  3
ACAD_MLINESTYLE
350
17
  3
ACAD_PLOTSETTINGS
350
19
  3
ACAD_PLOTSTYLENAME
350
E
  3
ACDBHEADERROUNDTRIPXREC
350
7B8
  3
ADE_QUERY_LIBRARY
350
6A0
1001
ADE
1000
ADE02C003
1000
[Workspace]
1000
Drawings=1
1000
QueryLibrary=1
1000
Databases=1
1000
Tables=1
1000
Queries=1
1000
Topologies=1
1000
LPNs=1
1000
ShowWSpaceOnStartup=1
1000
WSpaceDockingView=1
1000
WSpaceWindowRect=0,0,0,0
1000
[Work Session]
1000
RestoreLastActiveDwgsOnStartup=1
1000
ActivateDwgsOnAttach=1
1000
DontAddObjectsToSaveSet=0
1000
MarkObjectsForEditingWithoutPrompting=0
1000
LogFileActive=1
1000
LogFileName=acadmap.log
1000
LogMessageLevel=1
1000
[Query]
1000
QueryFileDirectory=C:\Archivos de programa\AutoCAD Map 2000i
1000
CaseSensitiveMatch=0
1000
SaveCurrQueryInSession=1
1000
MkSelSetWithQryObj=0
1000
ShowBlockAsInsPt=0
1000
CreateAssociativeHatchObjects=0
1000
ReferenceBoundaryForAreaLocation=1
1000
ShowImageAsBoundary=1
1000
DefaultJoinOperator=2
1000
ColorForAdd=red
1000
ColorForRemove=red
1000
BlockLocnForQuery=1
1000
TextLocnForQuery=1
1000
[Save Back]
1000
RedefineBlockDefinitions=1
1000
RedefineLayerDefinitions=1
1000
RedefineTextStyleDefinitions=1
1000
RemoveUnusedGroups=1
1000
EraseSavedBackObjects=1
1000
RemoveLockAfterSave=1
1000
CreateHistoryFileOfChanges=0
1000
CreateBackupFileOfSourceDwg=1
1000
[External Database]
1000
DisplayTabsInSingleView=0
1000
OpenDataViewReadOnly=0
1000
SaveDataViewFmtChanges=1
1000
KeepDataViewOnTop=0
1000
ReconnectDbOnWSOpen=1
1000
NoOfSQLConditionsInHistory=10
1000
ShowFullDBPath=1
1000
[Database Types]
1000
dbfDatabases=Prompt
1000
xlsDatabases=Prompt
1000
dbDatabases=Prompt
1000
[Coordinate Transformation]
1000
AdjustSizesAndScalesForChangesInUnits=1
1000
AdjustRotationsForMapDistortions=1
1000
AdjustSizesAndScalesForMapDistortions=1
1000
AdjustElevations=1
1000
AdjustZeroRotationObjects=1
  0
DICTIONARY
  5
7D9
330
1F
100
AcDbDictionary
280
     1
  3
ACAD_LAYOUTSELFREF
360
7DA
  0
DICTIONARY
  5
7DB
330
50
100
AcDbDictionary
280
     1
  3
ACAD_LAYOUTSELFREF
360
7DC
  0
IMAGEDEF_REACTOR
  5
708
330
707
100
AcDbRasterImageDefReactor
 90
        2
330
707
  0
DICTIONARY
  5
D
102
{ACAD_REACTORS
330
C
102
}
330
C
100
AcDbDictionary
  0
DICTIONARY
  5
6FD
102
{ACAD_REACTORS
330
C
102
}
330
C
100
AcDbDictionary
  3
COPIA__2__DE_LOGO1
350
6FE
  0
RASTERVARIABLES
  5
700
102
{ACAD_REACTORS
330
C
102
}
330
C
100
AcDbRasterVariables
 90
        0
 70
     1
 71
     1
 72
     1
  0
DICTIONARY
  5
1A
102
{ACAD_REACTORS
330
C
102
}
330
C
100
AcDbDictionary
  0
DICTIONARY
  5
17
102
{ACAD_REACTORS
330
C
102
}
330
C
100
AcDbDictionary
  3
STANDARD
350
18
  0
DICTIONARY
  5
19
102
{ACAD_REACTORS
330
C
102
}
330
C
100
AcDbDictionary
  0
ACDBDICTIONARYWDFLT
  5
E
102
{ACAD_REACTORS
330
C
102
}
330
C
100
AcDbDictionary
281
     1
  3
Normal
350
F
100
AcDbDictionaryWithDefault
340
F
  0
DICTIONARY
  5
7B8
102
{ACAD_REACTORS
330
C
102
}
330
C
100
AcDbDictionary
  3
CEPSNTYPE
350
7C2
  3
DIMSTYLEDATA
350
7C6
  3
FINGERPRINTGUID
350
7C3
  3
HYPERLINKBASE
350
7BB
  3
INSUNITS
350
7C1
  3
LAYOUTDICT
350
7BD
  3
LWETCUNION
350
7C0
  3
PLOTSETDICT
350
7BE
  3
PLOTSTYLNAMDICT
350
7BF
  3
PSVPSCALE
350
7C5
  3
PUCSBASE
350
7C9
  3
PUCSORGBACK
350
7CF
  3
PUCSORGBOTTOM
350
7CB
  3
PUCSORGFRONT
350
7CE
  3
PUCSORGLEFT
350
7CC
  3
PUCSORGRIGHT
350
7CD
  3
PUCSORGTOP
350
7CA
  3
PUCSORTHOREF
350
7C7
  3
PUCSORTHOVIEW
350
7C8
  3
STYLESHEET
350
7BC
  3
TSTACKALIGN
350
7B9
  3
TSTACKSIZE
350
7BA
  3
UCSBASE
350
7D2
  3
UCSORGBACK
350
7D8
  3
UCSORGBOTTOM
350
7D4
  3
UCSORGFRONT
350
7D7
  3
UCSORGLEFT
350
7D5
  3
UCSORGRIGHT
350
7D6
  3
UCSORGTOP
350
7D3
  3
UCSORTHOREF
350
7D0
  3
UCSORTHOVIEW
350
7D1
  3
VERSIONGUID
350
7C4
  0
DICTIONARY
  5
6A0
102
{ACAD_REACTORS
330
C
102
}
330
C
100
AcDbDictionary
  3
_CURRQRY
350
7B6
  0
XRECORD
  5
7DA
102
{ACAD_REACTORS
330
7D9
102
}
330
7D9
100
AcDbXrecord
340
1F
  0
XRECORD
  5
7DC
102
{ACAD_REACTORS
330
7DB
102
}
330
7DB
100
AcDbXrecord
340
50
  0
IMAGEDEF
  5
6FE
102
{ACAD_REACTORS
330
6FD
330
708
102
}
330
6FD
100
AcDbRasterImageDef
 90
        0
  1
C:\Documents and Settings\Luis_Pardo\Mis documentos\Mis imágenes\Copia (2) de Logo1.JPG
 10
226.0
 20
235.0
 11
0.0044247787610619
 21
0.0044247787610619
280
     1
281
     0
  0
MLINESTYLE
  5
18
102
{ACAD_REACTORS
330
17
102
}
330
17
100
AcDbMlineStyle
  2
STANDARD
 70
     0
  3

 62
   256
 51
90.0
 52
90.0
 71
     2
 49
0.5
 62
   256
  6
BYLAYER
 49
-0.5
 62
   256
  6
BYLAYER
  0
ACDBPLACEHOLDER
  5
F
102
{ACAD_REACTORS
330
E
102
}
330
E
100
AcDbPlaceHolder
280
     0
  0
XRECORD
  5
7C2
102
{ACAD_REACTORS
330
7B8
102
}
330
7B8
100
AcDbXrecord
 90
        0
  0
XRECORD
  5
7C6
102
{ACAD_REACTORS
330
7B8
102
}
330
7B8
100
AcDbXrecord
1000
DSTYLE
1002
{
1070
   278
 70
    44
1002
}
  0
XRECORD
  5
7C3
102
{ACAD_REACTORS
330
7B8
102
}
330
7B8
100
AcDbXrecord
  1
{FDEAD578-A652-11D2-9A35-0060089B3A3F}
  0
XRECORD
  5
7BB
102
{ACAD_REACTORS
330
7B8
102
}
330
7B8
100
AcDbXrecord
  1

  0
XRECORD
  5
7C1
102
{ACAD_REACTORS
330
7B8
102
}
330
7B8
100
AcDbXrecord
 90
        4
  0
XRECORD
  5
7BD
102
{ACAD_REACTORS
330
7B8
102
}
330
7B8
100
AcDbXrecord
340
1A
  0
XRECORD
  5
7C0
102
{ACAD_REACTORS
330
7B8
102
}
330
7B8
100
AcDbXrecord
 90
    10781
  0
XRECORD
  5
7BE
102
{ACAD_REACTORS
330
7B8
102
}
330
7B8
100
AcDbXrecord
340
19
  0
XRECORD
  5
7BF
102
{ACAD_REACTORS
330
7B8
102
}
330
7B8
100
AcDbXrecord
340
E
  0
XRECORD
  5
7C5
102
{ACAD_REACTORS
330
7B8
102
}
330
7B8
100
AcDbXrecord
 40
0.0
  0
XRECORD
  5
7C9
102
{ACAD_REACTORS
330
7B8
102
}
330
7B8
100
AcDbXrecord
340
0
  0
XRECORD
  5
7CF
102
{ACAD_REACTORS
330
7B8
102
}
330
7B8
100
AcDbXrecord
 10
0.0
 20
0.0
 30
0.0
  0
XRECORD
  5
7CB
102
{ACAD_REACTORS
330
7B8
102
}
330
7B8
100
AcDbXrecord
 10
0.0
 20
0.0
 30
0.0
  0
XRECORD
  5
7CE
102
{ACAD_REACTORS
330
7B8
102
}
330
7B8
100
AcDbXrecord
 10
0.0
 20
0.0
 30
0.0
  0
XRECORD
  5
7CC
102
{ACAD_REACTORS
330
7B8
102
}
330
7B8
100
AcDbXrecord
 10
0.0
 20
0.0
 30
0.0
  0
XRECORD
  5
7CD
102
{ACAD_REACTORS
330
7B8
102
}
330
7B8
100
AcDbXrecord
 10
0.0
 20
0.0
 30
0.0
  0
XRECORD
  5
7CA
102
{ACAD_REACTORS
330
7B8
102
}
330
7B8
100
AcDbXrecord
 10
0.0
 20
0.0
 30
0.0
  0
XRECORD
  5
7C7
102
{ACAD_REACTORS
330
7B8
102
}
330
7B8
100
AcDbXrecord
340
0
  0
XRECORD
  5
7C8
102
{ACAD_REACTORS
330
7B8
102
}
330
7B8
100
AcDbXrecord
 70
     0
  0
XRECORD
  5
7BC
102
{ACAD_REACTORS
330
7B8
102
}
330
7B8
100
AcDbXrecord
  1

  0
XRECORD
  5
7B9
102
{ACAD_REACTORS
330
7B8
102
}
330
7B8
100
AcDbXrecord
 90
        1
  0
XRECORD
  5
7BA
102
{ACAD_REACTORS
330
7B8
102
}
330
7B8
100
AcDbXrecord
 90
       70
  0
XRECORD
  5
7D2
102
{ACAD_REACTORS
330
7B8
102
}
330
7B8
100
AcDbXrecord
340
0
  0
XRECORD
  5
7D8
102
{ACAD_REACTORS
330
7B8
102
}
330
7B8
100
AcDbXrecord
 10
0.0
 20
0.0
 30
0.0
  0
XRECORD
  5
7D4
102
{ACAD_REACTORS
330
7B8
102
}
330
7B8
100
AcDbXrecord
 10
0.0
 20
0.0
 30
0.0
  0
XRECORD
  5
7D7
102
{ACAD_REACTORS
330
7B8
102
}
330
7B8
100
AcDbXrecord
 10
0.0
 20
0.0
 30
0.0
  0
XRECORD
  5
7D5
102
{ACAD_REACTORS
330
7B8
102
}
330
7B8
100
AcDbXrecord
 10
0.0
 20
0.0
 30
0.0
  0
XRECORD
  5
7D6
102
{ACAD_REACTORS
330
7B8
102
}
330
7B8
100
AcDbXrecord
 10
0.0
 20
0.0
 30
0.0
  0
XRECORD
  5
7D3
102
{ACAD_REACTORS
330
7B8
102
}
330
7B8
100
AcDbXrecord
 10
0.0
 20
0.0
 30
0.0
  0
XRECORD
  5
7D0
102
{ACAD_REACTORS
330
7B8
102
}
330
7B8
100
AcDbXrecord
340
0
  0
XRECORD
  5
7D1
102
{ACAD_REACTORS
330
7B8
102
}
330
7B8
100
AcDbXrecord
 70
     0
  0
XRECORD
  5
7C4
102
{ACAD_REACTORS
330
7B8
102
}
330
7B8
100
AcDbXrecord
  1
{7E729990-48EF-4B49-982F-A95936DD1ED1}
  0
XRECORD
  5
7B6
102
{ACAD_REACTORS
330
6A0
102
}
330
6A0
100
AcDbXrecord
1000
ADE02C001
1070
     1
1070
     0
1002
{
1002
}
1002
{
1002
}
1002
{
1002
}
1000

  0
ENDSEC
  0
EOF
