  0
SECTION
  2
HEADER
  9
$ACADVER
  1
AC1014
  9
$ACADMAINTVER
 70
     9
  9
$DWGCODEPAGE
  3
ANSI_1252
  9
$INSBASE
 10
0.0
 20
0.0
 30
0.0
  9
$EXTMIN
 10
64.53983576159321
 20
124.3055396908554
 30
0.0
  9
$EXTMAX
 10
1099.622742228864
 20
1357.514119174747
 30
0.0
  9
$LIMMIN
 10
0.0
 20
0.0
  9
$LIMMAX
 10
420.0
 20
297.0
  9
$ORTHOMODE
 70
     1
  9
$REGENMODE
 70
     1
  9
$FILLMODE
 70
     1
  9
$QTEXTMODE
 70
     0
  9
$MIRRTEXT
 70
     1
  9
$DRAGMODE
 70
     2
  9
$LTSCALE
 40
1.0
  9
$OSMODE
 70
    37
  9
$ATTMODE
 70
     1
  9
$TEXTSIZE
 40
10.0
  9
$TRACEWID
 40
1.0
  9
$TEXTSTYLE
  7
STANDARD
  9
$CLAYER
  8
EDGES
  9
$CELTYPE
  6
BYLAYER
  9
$CECOLOR
 62
   256
  9
$CELTSCALE
 40
1.0
  9
$DELOBJ
 70
     1
  9
$DISPSILH
 70
     0
  9
$DIMSCALE
 40
1.0
  9
$DIMASZ
 40
2.5
  9
$DIMEXO
 40
0.625
  9
$DIMDLI
 40
3.75
  9
$DIMRND
 40
0.0
  9
$DIMDLE
 40
0.0
  9
$DIMEXE
 40
1.25
  9
$DIMTP
 40
0.0
  9
$DIMTM
 40
0.0
  9
$DIMTXT
 40
2.5
  9
$DIMCEN
 40
2.5
  9
$DIMTSZ
 40
0.0
  9
$DIMTOL
 70
     0
  9
$DIMLIM
 70
     0
  9
$DIMTIH
 70
     0
  9
$DIMTOH
 70
     0
  9
$DIMSE1
 70
     0
  9
$DIMSE2
 70
     0
  9
$DIMTAD
 70
     1
  9
$DIMZIN
 70
     8
  9
$DIMBLK
  1

  9
$DIMASO
 70
     1
  9
$DIMSHO
 70
     1
  9
$DIMPOST
  1

  9
$DIMAPOST
  1

  9
$DIMALT
 70
     0
  9
$DIMALTD
 70
     3
  9
$DIMALTF
 40
0.03937007874016
  9
$DIMLFAC
 40
1.0
  9
$DIMTOFL
 70
     1
  9
$DIMTVP
 40
0.0
  9
$DIMTIX
 70
     0
  9
$DIMSOXD
 70
     0
  9
$DIMSAH
 70
     0
  9
$DIMBLK1
  1

  9
$DIMBLK2
  1

  9
$DIMSTYLE
  2
ISO-25
  9
$DIMCLRD
 70
     0
  9
$DIMCLRE
 70
     0
  9
$DIMCLRT
 70
     0
  9
$DIMTFAC
 40
1.0
  9
$DIMGAP
 40
0.625
  9
$DIMJUST
 70
     0
  9
$DIMSD1
 70
     0
  9
$DIMSD2
 70
     0
  9
$DIMTOLJ
 70
     0
  9
$DIMTZIN
 70
     8
  9
$DIMALTZ
 70
     0
  9
$DIMALTTZ
 70
     0
  9
$DIMFIT
 70
     3
  9
$DIMUPT
 70
     0
  9
$DIMUNIT
 70
     2
  9
$DIMDEC
 70
     1
  9
$DIMTDEC
 70
     1
  9
$DIMALTU
 70
     2
  9
$DIMALTTD
 70
     3
  9
$DIMTXSTY
  7
STANDARD
  9
$DIMAUNIT
 70
     0
  9
$LUNITS
 70
     2
  9
$LUPREC
 70
     4
  9
$SKETCHINC
 40
1.0
  9
$FILLETRAD
 40
10.0
  9
$AUNITS
 70
     0
  9
$AUPREC
 70
     0
  9
$MENU
  1
.
  9
$ELEVATION
 40
0.0
  9
$PELEVATION
 40
0.0
  9
$THICKNESS
 40
0.0
  9
$LIMCHECK
 70
     0
  9
$BLIPMODE
 70
     0
  9
$CHAMFERA
 40
10.0
  9
$CHAMFERB
 40
10.0
  9
$CHAMFERC
 40
20.0
  9
$CHAMFERD
 40
0.0
  9
$SKPOLY
 70
     0
  9
$TDCREATE
 40
2454001.727214444
  9
$TDUPDATE
 40
2454003.694739398
  9
$TDINDWG
 40
0.1294948958
  9
$TDUSRTIMER
 40
0.1294948958
  9
$USRTIMER
 70
     1
  9
$ANGBASE
 50
0.0
  9
$ANGDIR
 70
     0
  9
$PDMODE
 70
     0
  9
$PDSIZE
 40
0.0
  9
$PLINEWID
 40
0.0
  9
$COORDS
 70
     1
  9
$SPLFRAME
 70
     0
  9
$SPLINETYPE
 70
     6
  9
$SPLINESEGS
 70
     8
  9
$ATTDIA
 70
     0
  9
$ATTREQ
 70
     1
  9
$HANDLING
 70
-16383
  9
$HANDSEED
  5
B10
  9
$SURFTAB1
 70
     6
  9
$SURFTAB2
 70
     6
  9
$SURFTYPE
 70
     6
  9
$SURFU
 70
     6
  9
$SURFV
 70
     6
  9
$UCSNAME
  2

  9
$UCSORG
 10
0.0
 20
0.0
 30
0.0
  9
$UCSXDIR
 10
1.0
 20
0.0
 30
0.0
  9
$UCSYDIR
 10
0.0
 20
1.0
 30
0.0
  9
$PUCSNAME
  2

  9
$PUCSORG
 10
0.0
 20
0.0
 30
0.0
  9
$PUCSXDIR
 10
1.0
 20
0.0
 30
0.0
  9
$PUCSYDIR
 10
0.0
 20
1.0
 30
0.0
  9
$USERI1
 70
     0
  9
$USERI2
 70
     0
  9
$USERI3
 70
     0
  9
$USERI4
 70
     0
  9
$USERI5
 70
     0
  9
$USERR1
 40
0.0
  9
$USERR2
 40
0.0
  9
$USERR3
 40
0.0
  9
$USERR4
 40
0.0
  9
$USERR5
 40
0.0
  9
$WORLDVIEW
 70
     1
  9
$SHADEDGE
 70
     3
  9
$SHADEDIF
 70
    70
  9
$TILEMODE
 70
     1
  9
$MAXACTVP
 70
    64
  9
$PINSBASE
 10
0.0
 20
0.0
 30
0.0
  9
$PLIMCHECK
 70
     0
  9
$PEXTMIN
 10
0.0
 20
0.0
 30
0.0
  9
$PEXTMAX
 10
0.0
 20
0.0
 30
0.0
  9
$PLIMMIN
 10
0.0
 20
0.0
  9
$PLIMMAX
 10
12.0
 20
9.0
  9
$UNITMODE
 70
     0
  9
$VISRETAIN
 70
     1
  9
$PLINEGEN
 70
     0
  9
$PSLTSCALE
 70
     1
  9
$TREEDEPTH
 70
  3020
  9
$PICKSTYLE
 70
     1
  9
$CMLSTYLE
  2
STANDARD
  9
$CMLJUST
 70
     0
  9
$CMLSCALE
 40
20.0
  9
$PROXYGRAPHICS
 70
     1
  9
$MEASUREMENT
 70
     1
  0
ENDSEC
  0
SECTION
  2
CLASSES
  0
CLASS
  1
ACDBDICTIONARYWDFLT
  2
AcDbDictionaryWithDefault
  3
AutoCAD 2000
 90
        0
280
     0
281
     0
  0
CLASS
  1
ACDBPLACEHOLDER
  2
AcDbPlaceHolder
  3
AutoCAD 2000
 90
        0
280
     0
281
     0
  0
CLASS
  1
LAYOUT
  2
AcDbLayout
  3
AutoCAD 2000
 90
        0
280
     0
281
     0
  0
CLASS
  1
IMAGE
  2
AcDbRasterImage
  3
ISM
 90
      127
280
     0
281
     1
  0
CLASS
  1
IMAGEDEF_REACTOR
  2
AcDbRasterImageDefReactor
  3
ISM
 90
        1
280
     0
281
     0
  0
CLASS
  1
IMAGEDEF
  2
AcDbRasterImageDef
  3
ISM
 90
        0
280
     0
281
     0
  0
CLASS
  1
RASTERVARIABLES
  2
AcDbRasterVariables
  3
ISM
 90
        0
280
     0
281
     0
  0
CLASS
  1
LONG_TRANSACTION
  2
AcDbLongTransaction
  3
AutoCAD 2000
 90
        0
280
     0
281
     0
  0
CLASS
  1
LWPOLYLINE
  2
AcDbPolyline
  3
AutoCAD 2000
 90
        0
280
     0
281
     1
  0
CLASS
  1
HATCH
  2
AcDbHatch
  3
AutoCAD 2000
 90
        0
280
     0
281
     1
  0
CLASS
  1
XRECORD
  2
AcDbXrecord
  3
AutoCAD 2000
 90
        0
280
     0
281
     0
  0
ENDSEC
  0
SECTION
  2
TABLES
  0
TABLE
  2
VPORT
  5
8
330
0
100
AcDbSymbolTable
 70
     2
  0
VPORT
  5
AE8
330
8
100
AcDbSymbolTableRecord
100
AcDbViewportTableRecord
  2
*ACTIVE
 70
     0
 10
0.0
 20
0.0
 11
1.0
 21
1.0
 12
573.3220660403856
 22
740.9264424047941
 13
0.0
 23
0.0
 14
10.0
 24
10.0
 15
10.0
 25
10.0
 16
0.0
 26
0.0
 36
1.0
 17
0.0
 27
0.0
 37
0.0
 40
1247.684389801751
 41
1.775280898876404
 42
50.0
 43
0.0
 44
0.0
 50
0.0
 51
0.0
 71
     0
 72
   100
 73
     1
 74
     3
 75
     0
 76
     0
 77
     0
 78
     0
  0
ENDTAB
  0
TABLE
  2
LTYPE
  5
5
330
0
100
AcDbSymbolTable
 70
     7
  0
LTYPE
  5
14
330
5
100
AcDbSymbolTableRecord
100
AcDbLinetypeTableRecord
  2
BYBLOCK
 70
     0
  3

 72
    65
 73
     0
 40
0.0
  0
LTYPE
  5
15
330
5
100
AcDbSymbolTableRecord
100
AcDbLinetypeTableRecord
  2
BYLAYER
 70
     0
  3

 72
    65
 73
     0
 40
0.0
  0
LTYPE
  5
16
330
5
100
AcDbSymbolTableRecord
100
AcDbLinetypeTableRecord
  2
CONTINUOUS
 70
     0
  3
Solid line
 72
    65
 73
     0
 40
0.0
  0
LTYPE
  5
5D
330
5
100
AcDbSymbolTableRecord
100
AcDbLinetypeTableRecord
  2
DASHED
 70
     0
  3
__ __ __ __ __ __ __ __ __ __ __ __ __ __ __ __ __ __ __ __ __
 72
    65
 73
     2
 40
0.75
 49
0.5
 74
     0
 49
-0.25
 74
     0
  0
LTYPE
  5
5E
330
5
100
AcDbSymbolTableRecord
100
AcDbLinetypeTableRecord
  2
CENTERX2
 70
     0
  3
________  __  ________  __  ________  __  ________  __  ____
 72
    65
 73
     4
 40
4.0
 49
2.5
 74
     0
 49
-0.5
 74
     0
 49
0.5
 74
     0
 49
-0.5
 74
     0
  0
LTYPE
  5
3CA
330
5
100
AcDbSymbolTableRecord
100
AcDbLinetypeTableRecord
  2
ACAD_ISO02W100
 70
     0
  3
ISO dash __ __ __ __ __ __ __ __ __ __ __ __ __
 72
    65
 73
     2
 40
15.0
 49
12.0
 74
     0
 49
-3.0
 74
     0
  0
LTYPE
  5
75B
330
5
100
AcDbSymbolTableRecord
100
AcDbLinetypeTableRecord
  2
DASHDOT
 70
     0
  3
Dash dot __ . __ . __ . __ . __ . __ . __ . __
 72
    65
 73
     4
 40
1.0
 49
0.5
 74
     0
 49
-0.25
 74
     0
 49
0.0
 74
     0
 49
-0.25
 74
     0
  0
LTYPE
  5
75C
330
5
100
AcDbSymbolTableRecord
100
AcDbLinetypeTableRecord
  2
DIVIDE
 70
     0
  3
Divide ____ . . ____ . . ____ . . ____ . . ____
 72
    65
 73
     6
 40
1.25
 49
0.5
 74
     0
 49
-0.25
 74
     0
 49
0.0
 74
     0
 49
-0.25
 74
     0
 49
0.0
 74
     0
 49
-0.25
 74
     0
  0
LTYPE
  5
75D
330
5
100
AcDbSymbolTableRecord
100
AcDbLinetypeTableRecord
  2
DOT
 70
     0
  3
Dot . . . . . . . . . . . . . . . . . . . . . .
 72
    65
 73
     2
 40
0.25
 49
0.0
 74
     0
 49
-0.25
 74
     0
  0
ENDTAB
  0
TABLE
  2
LAYER
  5
2
330
0
100
AcDbSymbolTable
 70
     6
  0
LAYER
  5
10
330
2
100
AcDbSymbolTableRecord
100
AcDbLayerTableRecord
  2
0
 70
     0
 62
     7
  6
CONTINUOUS
  0
LAYER
  5
5F
330
2
100
AcDbSymbolTableRecord
100
AcDbLayerTableRecord
  2
EDGES
 70
     0
 62
     7
  6
CONTINUOUS
  0
LAYER
  5
60
330
2
100
AcDbSymbolTableRecord
100
AcDbLayerTableRecord
  2
PALO
 70
     0
 62
     7
  6
CONTINUOUS
  0
LAYER
  5
3A0
330
2
100
AcDbSymbolTableRecord
100
AcDbLayerTableRecord
  2
DEFPOINTS
 70
     0
 62
     7
  6
CONTINUOUS
  0
LAYER
  5
3CB
330
2
100
AcDbSymbolTableRecord
100
AcDbLayerTableRecord
  2
AXIX
 70
     0
 62
     5
  6
ACAD_ISO02W100
  0
LAYER
  5
3CD
330
2
100
AcDbSymbolTableRecord
100
AcDbLayerTableRecord
  2
DIM
 70
     0
 62
     1
  6
CONTINUOUS
  0
ENDTAB
  0
TABLE
  2
STYLE
  5
3
330
0
100
AcDbSymbolTable
 70
     2
  0
STYLE
  5
11
330
3
100
AcDbSymbolTableRecord
100
AcDbTextStyleTableRecord
  2
STANDARD
 70
     0
 40
0.0
 41
1.0
 50
0.0
 71
     0
 42
10.0
  3
cityb___.ttf
  4

1001
ACAD
1000
CityBlueprint
1071
      514
  0
STYLE
  5
3C9
330
3
100
AcDbSymbolTableRecord
100
AcDbTextStyleTableRecord
  2

 70
     1
 40
0.0
 41
1.0
 50
0.0
 71
     0
 42
2.5
  3
ltypeshp.shx
  4

  0
ENDTAB
  0
TABLE
  2
VIEW
  5
6
330
0
100
AcDbSymbolTable
 70
     0
  0
ENDTAB
  0
TABLE
  2
UCS
  5
7
330
0
100
AcDbSymbolTable
 70
     0
  0
ENDTAB
  0
TABLE
  2
APPID
  5
9
330
0
100
AcDbSymbolTable
 70
     7
  0
APPID
  5
12
330
9
100
AcDbSymbolTableRecord
100
AcDbRegAppTableRecord
  2
ACAD
 70
     0
  0
APPID
  5
62
330
9
100
AcDbSymbolTableRecord
100
AcDbRegAppTableRecord
  2
ADE
 70
     0
  0
APPID
  5
38F
330
9
100
AcDbSymbolTableRecord
100
AcDbRegAppTableRecord
  2
DCO15
 70
     0
  0
APPID
  5
858
330
9
100
AcDbSymbolTableRecord
100
AcDbRegAppTableRecord
  2
_398DCCB4-48C0-4CD9-AD46-7
 70
     0
  0
APPID
  5
859
330
9
100
AcDbSymbolTableRecord
100
AcDbRegAppTableRecord
  2
_1D509D7C-DAFB-45F5-921D-F
 70
     0
  0
APPID
  5
85A
330
9
100
AcDbSymbolTableRecord
100
AcDbRegAppTableRecord
  2
_A63535FC-0515-4076-9DEA-0
 70
     0
  0
APPID
  5
85B
330
9
100
AcDbSymbolTableRecord
100
AcDbRegAppTableRecord
  2
_9F252F4F-F890-4F8C-AA02-C
 70
     0
  0
ENDTAB
  0
TABLE
  2
DIMSTYLE
  5
A
330
0
100
AcDbSymbolTable
 70
     2
  0
DIMSTYLE
105
27
102
{ACAD_REACTORS
330
3CE
330
3EA
330
428
330
435
330
44F
330
478
330
485
330
492
330
49F
330
4AC
330
4B9
330
4D8
330
4E5
330
4F2
330
501
330
50E
330
535
330
578
330
9CF
330
9DC
330
AAB
102
}
330
A
100
AcDbSymbolTableRecord
100
AcDbDimStyleTableRecord
  2
ISO-25
 70
     0
  3

  4

  5

  6

  7

 40
1.0
 41
2.5
 42
0.625
 43
3.75
 44
1.25
 45
0.0
 46
0.0
 47
0.0
 48
0.0
140
2.5
141
2.5
142
0.0
143
0.03937007874016
144
1.0
145
0.0
146
1.0
147
0.625
 71
     0
 72
     0
 73
     0
 74
     0
 75
     0
 76
     0
 77
     1
 78
     8
170
     0
171
     3
172
     1
173
     0
174
     0
175
     0
176
     0
177
     0
178
     0
270
     2
271
     1
272
     1
273
     2
274
     3
340
11
275
     0
280
     0
281
     0
282
     0
283
     0
284
     8
285
     0
286
     0
287
     3
288
     0
  0
DIMSTYLE
105
61
330
A
100
AcDbSymbolTableRecord
100
AcDbDimStyleTableRecord
  2
STANDARD
 70
     0
  3

  4

  5

  6

  7

 40
1.0
 41
0.18
 42
0.0625
 43
0.38
 44
0.18
 45
0.0
 46
0.0
 47
0.0
 48
0.0
140
0.18
141
0.09
142
0.0
143
25.4
144
1.0
145
0.0
146
1.0
147
0.09
 71
     0
 72
     0
 73
     1
 74
     1
 75
     0
 76
     0
 77
     0
 78
     0
170
     0
171
     2
172
     0
173
     0
174
     0
175
     0
176
     0
177
     0
178
     0
270
     2
271
     1
272
     1
273
     2
274
     2
340
11
275
     0
280
     0
281
     0
282
     0
283
     1
284
     0
285
     0
286
     0
287
     3
288
     0
  0
ENDTAB
  0
TABLE
  2
BLOCK_RECORD
  5
1
330
0
100
AcDbSymbolTable
 70
    23
  0
BLOCK_RECORD
  5
1F
102
{ACAD_XDICTIONARY
360
B0A
102
}
330
1
100
AcDbSymbolTableRecord
100
AcDbBlockTableRecord
  2
*MODEL_SPACE
  0
BLOCK_RECORD
  5
50
102
{ACAD_XDICTIONARY
360
B0C
102
}
330
1
100
AcDbSymbolTableRecord
100
AcDbBlockTableRecord
  2
*PAPER_SPACE
  0
BLOCK_RECORD
  5
3CF
330
1
100
AcDbSymbolTableRecord
100
AcDbBlockTableRecord
  2
*D1
  0
BLOCK_RECORD
  5
3EB
330
1
100
AcDbSymbolTableRecord
100
AcDbBlockTableRecord
  2
*D2
  0
BLOCK_RECORD
  5
429
330
1
100
AcDbSymbolTableRecord
100
AcDbBlockTableRecord
  2
*D3
  0
BLOCK_RECORD
  5
436
330
1
100
AcDbSymbolTableRecord
100
AcDbBlockTableRecord
  2
*D4
  0
BLOCK_RECORD
  5
450
330
1
100
AcDbSymbolTableRecord
100
AcDbBlockTableRecord
  2
*D5
  0
BLOCK_RECORD
  5
479
330
1
100
AcDbSymbolTableRecord
100
AcDbBlockTableRecord
  2
*D6
  0
BLOCK_RECORD
  5
486
330
1
100
AcDbSymbolTableRecord
100
AcDbBlockTableRecord
  2
*D7
  0
BLOCK_RECORD
  5
493
330
1
100
AcDbSymbolTableRecord
100
AcDbBlockTableRecord
  2
*D8
  0
BLOCK_RECORD
  5
4A0
330
1
100
AcDbSymbolTableRecord
100
AcDbBlockTableRecord
  2
*D9
  0
BLOCK_RECORD
  5
4AD
330
1
100
AcDbSymbolTableRecord
100
AcDbBlockTableRecord
  2
*D10
  0
BLOCK_RECORD
  5
4BA
330
1
100
AcDbSymbolTableRecord
100
AcDbBlockTableRecord
  2
*D11
  0
BLOCK_RECORD
  5
4D9
330
1
100
AcDbSymbolTableRecord
100
AcDbBlockTableRecord
  2
*D12
  0
BLOCK_RECORD
  5
4E6
330
1
100
AcDbSymbolTableRecord
100
AcDbBlockTableRecord
  2
*D13
  0
BLOCK_RECORD
  5
4F3
330
1
100
AcDbSymbolTableRecord
100
AcDbBlockTableRecord
  2
*D14
  0
BLOCK_RECORD
  5
502
330
1
100
AcDbSymbolTableRecord
100
AcDbBlockTableRecord
  2
*D15
  0
BLOCK_RECORD
  5
50F
330
1
100
AcDbSymbolTableRecord
100
AcDbBlockTableRecord
  2
*D16
  0
BLOCK_RECORD
  5
536
330
1
100
AcDbSymbolTableRecord
100
AcDbBlockTableRecord
  2
*D17
  0
BLOCK_RECORD
  5
579
330
1
100
AcDbSymbolTableRecord
100
AcDbBlockTableRecord
  2
*D18
  0
BLOCK_RECORD
  5
94E
102
{ACAD_XDICTIONARY
360
9C7
102
}
330
1
100
AcDbSymbolTableRecord
100
AcDbBlockTableRecord
  2
*U19
1001
_398DCCB4-48C0-4CD9-AD46-7
1000
C:\Documents and Settings\Luis_Pardo\Mis documentos\RG65\Sup.vélica Guanche.xls
1001
_1D509D7C-DAFB-45F5-921D-F
1000
Hoja1
1001
_A63535FC-0515-4076-9DEA-0
1000

1001
_9F252F4F-F890-4F8C-AA02-C
1000
24/09/2006 8:36:22
  0
BLOCK_RECORD
  5
9D0
330
1
100
AcDbSymbolTableRecord
100
AcDbBlockTableRecord
  2
*D20
  0
BLOCK_RECORD
  5
9DD
330
1
100
AcDbSymbolTableRecord
100
AcDbBlockTableRecord
  2
*D21
  0
BLOCK_RECORD
  5
AAC
330
1
100
AcDbSymbolTableRecord
100
AcDbBlockTableRecord
  2
*D22
  0
ENDTAB
  0
ENDSEC
  0
SECTION
  2
BLOCKS
  0
BLOCK
  5
20
330
1F
100
AcDbEntity
  8
0
100
AcDbBlockBegin
  2
*MODEL_SPACE
 70
     0
 10
0.0
 20
0.0
 30
0.0
  3
*MODEL_SPACE
  1

  0
ENDBLK
  5
21
330
1F
100
AcDbEntity
  8
0
100
AcDbBlockEnd
  0
BLOCK
  5
52
330
50
100
AcDbEntity
 67
     1
  8
0
100
AcDbBlockBegin
  2
*PAPER_SPACE
 70
     0
 10
0.0
 20
0.0
 30
0.0
  3
*PAPER_SPACE
  1

  0
ENDBLK
  5
53
330
50
100
AcDbEntity
 67
     1
  8
0
100
AcDbBlockEnd
  0
BLOCK
  5
3D9
330
3CF
100
AcDbEntity
  8
0
100
AcDbBlockBegin
  2
*D1
 70
     1
 10
0.0
 20
0.0
 30
0.0
  3
*D1
  1

  0
LINE
  5
9EA
330
3CF
100
AcDbEntity
  8
DIM
 62
     0
100
AcDbLine
 10
116.142112103502
 20
430.9215587988092
 30
0.0
 11
116.1421121035019
 21
296.690808093173
 31
0.0
  0
LINE
  5
9EB
330
3CF
100
AcDbEntity
  8
DIM
 62
     0
100
AcDbLine
 10
1036.142112103517
 20
430.9215587988084
 30
0.0
 11
1036.142112103517
 21
296.690808093173
 31
0.0
  0
LINE
  5
9EC
330
3CF
100
AcDbEntity
  8
DIM
 62
     0
100
AcDbLine
 10
118.6421121035019
 20
297.940808093173
 30
0.0
 11
1033.642112103517
 21
297.940808093173
 31
0.0
  0
SOLID
  5
9ED
330
3CF
100
AcDbEntity
  8
DIM
 62
     0
100
AcDbTrace
 10
118.6421121035019
 20
298.3574747598396
 30
0.0
 11
118.6421121035019
 21
297.5241414265063
 31
0.0
 12
116.1421121035019
 22
297.940808093173
 32
0.0
 13
116.1421121035019
 23
297.940808093173
 33
0.0
  0
SOLID
  5
9EE
330
3CF
100
AcDbEntity
  8
DIM
 62
     0
100
AcDbTrace
 10
1033.642112103517
 20
298.3574747598396
 30
0.0
 11
1033.642112103517
 21
297.5241414265063
 31
0.0
 12
1036.142112103517
 22
297.940808093173
 32
0.0
 13
1036.142112103517
 23
297.940808093173
 33
0.0
  0
MTEXT
  5
9EF
330
3CF
100
AcDbEntity
  8
DIM
 62
     0
100
AcDbMText
 10
576.1421121035099
 20
299.8422713559376
 30
0.0
 40
2.5
 41
0.0
 71
     5
 72
     1
  1
920
1001
ACAD
1000
MTEXTBEGIN
1070
    73
1070
     1
1070
    44
1040
1.0
1070
    74
1070
     0
1000
MTEXTEND
  0
POINT
  5
9F0
330
3CF
100
AcDbEntity
  8
DEFPOINTS
 62
     0
100
AcDbPoint
 10
116.142112103502
 20
431.5465587988093
 30
0.0
  0
POINT
  5
9F1
330
3CF
100
AcDbEntity
  8
DEFPOINTS
 62
     0
100
AcDbPoint
 10
1036.142112103517
 20
431.5465587988085
 30
0.0
  0
POINT
  5
9F2
330
3CF
100
AcDbEntity
  8
DEFPOINTS
 62
     0
100
AcDbPoint
 10
1036.142112103517
 20
297.940808093173
 30
0.0
  0
ENDBLK
  5
3DA
330
3CF
100
AcDbEntity
  8
0
100
AcDbBlockEnd
  0
BLOCK
  5
3F5
330
3EB
100
AcDbEntity
  8
0
100
AcDbBlockBegin
  2
*D2
 70
     1
 10
0.0
 20
0.0
 30
0.0
  3
*D2
  1

  0
LINE
  5
9F3
330
3EB
100
AcDbEntity
  8
DIM
 62
     0
100
AcDbLine
 10
115.5171121035017
 20
651.546558798836
 30
0.0
 11
67.20562031950116
 21
651.546558798836
 31
0.0
  0
LINE
  5
9F4
330
3EB
100
AcDbEntity
  8
DIM
 62
     0
100
AcDbLine
 10
115.5171121035019
 20
431.5465587988119
 30
0.0
 11
67.20562031950112
 21
431.5465587988119
 31
0.0
  0
LINE
  5
9F5
330
3EB
100
AcDbEntity
  8
DIM
 62
     0
100
AcDbLine
 10
68.45562031950116
 20
649.046558798836
 30
0.0
 11
68.45562031950112
 21
434.0465587988119
 31
0.0
  0
SOLID
  5
9F6
330
3EB
100
AcDbEntity
  8
DIM
 62
     0
100
AcDbTrace
 10
68.03895365283449
 20
649.046558798836
 30
0.0
 11
68.87228698616784
 21
649.046558798836
 31
0.0
 12
68.45562031950116
 22
651.546558798836
 32
0.0
 13
68.45562031950116
 23
651.546558798836
 33
0.0
  0
SOLID
  5
9F7
330
3EB
100
AcDbEntity
  8
DIM
 62
     0
100
AcDbTrace
 10
68.03895365283445
 20
434.0465587988119
 30
0.0
 11
68.87228698616779
 21
434.0465587988119
 31
0.0
 12
68.45562031950112
 22
431.5465587988119
 32
0.0
 13
68.45562031950112
 23
431.5465587988119
 33
0.0
  0
MTEXT
  5
9F8
330
3EB
100
AcDbEntity
  8
DIM
 62
     0
100
AcDbMText
 10
66.55415705673641
 20
541.5465587988239
 30
0.0
 40
2.5
 41
0.0
 71
     5
 72
     1
  1
220
 11
0.0000000000000001
 21
1.0
 31
0.0
1001
ACAD
1000
MTEXTBEGIN
1070
    73
1070
     1
1070
    44
1040
1.0
1070
    74
1070
     0
1000
MTEXTEND
  0
POINT
  5
9F9
330
3EB
100
AcDbEntity
  8
DEFPOINTS
 62
     0
100
AcDbPoint
 10
116.1421121035017
 20
651.546558798836
 30
0.0
  0
POINT
  5
9FA
330
3EB
100
AcDbEntity
  8
DEFPOINTS
 62
     0
100
AcDbPoint
 10
116.1421121035019
 20
431.5465587988119
 30
0.0
  0
POINT
  5
9FB
330
3EB
100
AcDbEntity
  8
DEFPOINTS
 62
     0
100
AcDbPoint
 10
68.45562031950112
 20
431.5465587988119
 30
0.0
  0
ENDBLK
  5
3F6
330
3EB
100
AcDbEntity
  8
0
100
AcDbBlockEnd
  0
BLOCK
  5
433
330
429
100
AcDbEntity
  8
0
100
AcDbBlockBegin
  2
*D3
 70
     1
 10
0.0
 20
0.0
 30
0.0
  3
*D3
  1

  0
LINE
  5
9FC
330
429
100
AcDbEntity
  8
DIM
 62
     0
100
AcDbLine
 10
346.7671121035057
 20
634.2027868354098
 30
0.0
 11
379.8523846014054
 21
634.2027868354098
 31
0.0
  0
LINE
  5
9FD
330
429
100
AcDbEntity
  8
DIM
 62
     0
100
AcDbLine
 10
346.7671121035057
 20
429.2027868354097
 30
0.0
 11
379.8523846014054
 21
429.2027868354097
 31
0.0
  0
LINE
  5
9FE
330
429
100
AcDbEntity
  8
DIM
 62
     0
100
AcDbLine
 10
378.6023846014054
 20
631.7027868354098
 30
0.0
 11
378.6023846014054
 21
431.7027868354098
 31
0.0
  0
SOLID
  5
9FF
330
429
100
AcDbEntity
  8
DIM
 62
     0
100
AcDbTrace
 10
378.1857179347387
 20
631.7027868354098
 30
0.0
 11
379.0190512680721
 21
631.7027868354098
 31
0.0
 12
378.6023846014054
 22
634.2027868354098
 32
0.0
 13
378.6023846014054
 23
634.2027868354098
 33
0.0
  0
SOLID
  5
A00
330
429
100
AcDbEntity
  8
DIM
 62
     0
100
AcDbTrace
 10
378.1857179347387
 20
431.7027868354098
 30
0.0
 11
379.0190512680721
 21
431.7027868354098
 31
0.0
 12
378.6023846014054
 22
429.2027868354097
 32
0.0
 13
378.6023846014054
 23
429.2027868354097
 33
0.0
  0
MTEXT
  5
A01
330
429
100
AcDbEntity
  8
DIM
 62
     0
100
AcDbMText
 10
376.7009213386407
 20
531.7027868354099
 30
0.0
 40
2.5
 41
0.0
 71
     5
 72
     1
  1
205
 11
0.0000000000000001
 21
1.0
 31
0.0
1001
ACAD
1000
MTEXTBEGIN
1070
    73
1070
     1
1070
    44
1040
1.0
1070
    74
1070
     0
1000
MTEXTEND
  0
POINT
  5
A02
330
429
100
AcDbEntity
  8
DEFPOINTS
 62
     0
100
AcDbPoint
 10
346.1421121035057
 20
634.2027868354098
 30
0.0
  0
POINT
  5
A03
330
429
100
AcDbEntity
  8
DEFPOINTS
 62
     0
100
AcDbPoint
 10
346.1421121035057
 20
429.2027868354097
 30
0.0
  0
POINT
  5
A04
330
429
100
AcDbEntity
  8
DEFPOINTS
 62
     0
100
AcDbPoint
 10
378.6023846014054
 20
429.2027868354097
 30
0.0
  0
ENDBLK
  5
434
330
429
100
AcDbEntity
  8
0
100
AcDbBlockEnd
  0
BLOCK
  5
440
330
436
100
AcDbEntity
  8
0
100
AcDbBlockBegin
  2
*D4
 70
     1
 10
0.0
 20
0.0
 30
0.0
  3
*D4
  1

  0
LINE
  5
A05
330
436
100
AcDbEntity
  8
DIM
 62
     0
100
AcDbLine
 10
576.7671121035097
 20
603.4215655689449
 30
0.0
 11
625.9500375882079
 21
603.4215655689449
 31
0.0
  0
LINE
  5
A06
330
436
100
AcDbEntity
  8
DIM
 62
     0
100
AcDbLine
 10
576.7671121035097
 20
428.4215655689449
 30
0.0
 11
625.9500375882079
 21
428.4215655689449
 31
0.0
  0
LINE
  5
A07
330
436
100
AcDbEntity
  8
DIM
 62
     0
100
AcDbLine
 10
624.7000375882079
 20
600.9215655689449
 30
0.0
 11
624.7000375882079
 21
430.9215655689449
 31
0.0
  0
SOLID
  5
A08
330
436
100
AcDbEntity
  8
DIM
 62
     0
100
AcDbTrace
 10
624.2833709215412
 20
600.9215655689449
 30
0.0
 11
625.1167042548745
 21
600.9215655689449
 31
0.0
 12
624.7000375882079
 22
603.4215655689449
 32
0.0
 13
624.7000375882079
 23
603.4215655689449
 33
0.0
  0
SOLID
  5
A09
330
436
100
AcDbEntity
  8
DIM
 62
     0
100
AcDbTrace
 10
624.2833709215412
 20
430.9215655689449
 30
0.0
 11
625.1167042548745
 21
430.9215655689449
 31
0.0
 12
624.7000375882079
 22
428.4215655689449
 32
0.0
 13
624.7000375882079
 23
428.4215655689449
 33
0.0
  0
MTEXT
  5
A0A
330
436
100
AcDbEntity
  8
DIM
 62
     0
100
AcDbMText
 10
622.8188109381456
 20
515.921565568945
 30
0.0
 40
2.5
 41
0.0
 71
     5
 72
     1
  1
175
 11
0.0000000000000001
 21
1.0
 31
0.0
1001
ACAD
1000
MTEXTBEGIN
1070
    73
1070
     1
1070
    44
1040
1.0
1070
    74
1070
     0
1000
MTEXTEND
  0
POINT
  5
A0B
330
436
100
AcDbEntity
  8
DEFPOINTS
 62
     0
100
AcDbPoint
 10
576.1421121035096
 20
603.4215655689449
 30
0.0
  0
POINT
  5
A0C
330
436
100
AcDbEntity
  8
DEFPOINTS
 62
     0
100
AcDbPoint
 10
576.1421121035096
 20
428.4215655689449
 30
0.0
  0
POINT
  5
A0D
330
436
100
AcDbEntity
  8
DEFPOINTS
 62
     0
100
AcDbPoint
 10
624.7000375882079
 20
428.4215655689449
 30
0.0
  0
ENDBLK
  5
441
330
436
100
AcDbEntity
  8
0
100
AcDbBlockEnd
  0
BLOCK
  5
45A
330
450
100
AcDbEntity
  8
0
100
AcDbBlockBegin
  2
*D5
 70
     1
 10
0.0
 20
0.0
 30
0.0
  3
*D5
  1

  0
LINE
  5
A0E
330
450
100
AcDbEntity
  8
DIM
 62
     0
100
AcDbLine
 10
806.7671121035143
 20
564.2027868354025
 30
0.0
 11
878.0524938465608
 21
564.2027868354025
 31
0.0
  0
LINE
  5
A0F
330
450
100
AcDbEntity
  8
DIM
 62
     0
100
AcDbLine
 10
806.7671121035143
 20
429.2027868354025
 30
0.0
 11
878.0524938465608
 21
429.2027868354025
 31
0.0
  0
LINE
  5
A10
330
450
100
AcDbEntity
  8
DIM
 62
     0
100
AcDbLine
 10
876.8024938465609
 20
561.7027868354025
 30
0.0
 11
876.8024938465609
 21
431.7027868354025
 31
0.0
  0
SOLID
  5
A11
330
450
100
AcDbEntity
  8
DIM
 62
     0
100
AcDbTrace
 10
876.3858271798943
 20
561.7027868354025
 30
0.0
 11
877.2191605132276
 21
561.7027868354025
 31
0.0
 12
876.8024938465609
 22
564.2027868354025
 32
0.0
 13
876.8024938465609
 23
564.2027868354025
 33
0.0
  0
SOLID
  5
A12
330
450
100
AcDbEntity
  8
DIM
 62
     0
100
AcDbTrace
 10
876.3858271798943
 20
431.7027868354025
 30
0.0
 11
877.2191605132276
 21
431.7027868354025
 31
0.0
 12
876.8024938465609
 22
429.2027868354025
 32
0.0
 13
876.8024938465609
 23
429.2027868354025
 33
0.0
  0
MTEXT
  5
A13
330
450
100
AcDbEntity
  8
DIM
 62
     0
100
AcDbMText
 10
874.9212671964984
 20
496.7027868354027
 30
0.0
 40
2.5
 41
0.0
 71
     5
 72
     1
  1
135
 11
0.0000000000000001
 21
1.0
 31
0.0
1001
ACAD
1000
MTEXTBEGIN
1070
    73
1070
     1
1070
    44
1040
1.0
1070
    74
1070
     0
1000
MTEXTEND
  0
POINT
  5
A14
330
450
100
AcDbEntity
  8
DEFPOINTS
 62
     0
100
AcDbPoint
 10
806.1421121035142
 20
564.2027868354025
 30
0.0
  0
POINT
  5
A15
330
450
100
AcDbEntity
  8
DEFPOINTS
 62
     0
100
AcDbPoint
 10
806.1421121035142
 20
429.2027868354025
 30
0.0
  0
POINT
  5
A16
330
450
100
AcDbEntity
  8
DEFPOINTS
 62
     0
100
AcDbPoint
 10
876.8024938465609
 20
429.2027868354025
 30
0.0
  0
ENDBLK
  5
45B
330
450
100
AcDbEntity
  8
0
100
AcDbBlockEnd
  0
BLOCK
  5
483
330
479
100
AcDbEntity
  8
0
100
AcDbBlockBegin
  2
*D6
 70
     1
 10
0.0
 20
0.0
 30
0.0
  3
*D6
  1

  0
LINE
  5
A17
330
479
100
AcDbEntity
  8
DIM
 62
     0
100
AcDbLine
 10
116.1421121035019
 20
430.9215587988119
 30
0.0
 11
116.1421121035019
 21
323.2670636522243
 31
0.0
  0
LINE
  5
A18
330
479
100
AcDbEntity
  8
DIM
 62
     0
100
AcDbLine
 10
668.1417582763957
 20
427.9215587988119
 30
0.0
 11
668.1417582763957
 21
323.2670636522243
 31
0.0
  0
LINE
  5
A19
330
479
100
AcDbEntity
  8
DIM
 62
     0
100
AcDbLine
 10
118.6421121035019
 20
324.5170636522243
 30
0.0
 11
665.6417582763957
 21
324.5170636522243
 31
0.0
  0
SOLID
  5
A1A
330
479
100
AcDbEntity
  8
DIM
 62
     0
100
AcDbTrace
 10
118.6421121035019
 20
324.933730318891
 30
0.0
 11
118.6421121035019
 21
324.1003969855576
 31
0.0
 12
116.1421121035019
 22
324.5170636522243
 32
0.0
 13
116.1421121035019
 23
324.5170636522243
 33
0.0
  0
SOLID
  5
A1B
330
479
100
AcDbEntity
  8
DIM
 62
     0
100
AcDbTrace
 10
665.6417582763957
 20
324.933730318891
 30
0.0
 11
665.6417582763957
 21
324.1003969855576
 31
0.0
 12
668.1417582763957
 22
324.5170636522243
 32
0.0
 13
668.1417582763957
 23
324.5170636522243
 33
0.0
  0
MTEXT
  5
A1C
330
479
100
AcDbEntity
  8
DIM
 62
     0
100
AcDbMText
 10
392.1419351899488
 20
326.3920636522243
 30
0.0
 40
2.5
 41
0.0
 71
     5
 72
     1
  1
552
1001
ACAD
1000
MTEXTBEGIN
1070
    73
1070
     1
1070
    44
1040
1.0
1070
    74
1070
     0
1000
MTEXTEND
  0
POINT
  5
A1D
330
479
100
AcDbEntity
  8
DEFPOINTS
 62
     0
100
AcDbPoint
 10
116.1421121035019
 20
431.5465587988119
 30
0.0
  0
POINT
  5
A1E
330
479
100
AcDbEntity
  8
DEFPOINTS
 62
     0
100
AcDbPoint
 10
668.1417582763957
 20
428.5465587988119
 30
0.0
  0
POINT
  5
A1F
330
479
100
AcDbEntity
  8
DEFPOINTS
 62
     0
100
AcDbPoint
 10
668.1417582763957
 20
324.5170636522243
 30
0.0
  0
ENDBLK
  5
484
330
479
100
AcDbEntity
  8
0
100
AcDbBlockEnd
  0
BLOCK
  5
490
330
486
100
AcDbEntity
  8
0
100
AcDbBlockBegin
  2
*D7
 70
     1
 10
0.0
 20
0.0
 30
0.0
  3
*D7
  1

  0
LINE
  5
A20
330
486
100
AcDbEntity
  8
DIM
 62
     0
100
AcDbLine
 10
116.1421121035019
 20
430.9215587988119
 30
0.0
 11
116.1421121035019
 21
359.0872318193428
 31
0.0
  0
LINE
  5
A21
330
486
100
AcDbEntity
  8
DIM
 62
     0
100
AcDbLine
 10
346.1421121035057
 20
428.5777868354098
 30
0.0
 11
346.1421121035057
 21
359.0872318193428
 31
0.0
  0
LINE
  5
A22
330
486
100
AcDbEntity
  8
DIM
 62
     0
100
AcDbLine
 10
118.6421121035019
 20
360.3372318193428
 30
0.0
 11
343.6421121035057
 21
360.3372318193428
 31
0.0
  0
SOLID
  5
A23
330
486
100
AcDbEntity
  8
DIM
 62
     0
100
AcDbTrace
 10
118.6421121035019
 20
360.7538984860095
 30
0.0
 11
118.6421121035019
 21
359.9205651526761
 31
0.0
 12
116.1421121035019
 22
360.3372318193428
 32
0.0
 13
116.1421121035019
 23
360.3372318193428
 33
0.0
  0
SOLID
  5
A24
330
486
100
AcDbEntity
  8
DIM
 62
     0
100
AcDbTrace
 10
343.6421121035057
 20
360.7538984860095
 30
0.0
 11
343.6421121035057
 21
359.9205651526761
 31
0.0
 12
346.1421121035057
 22
360.3372318193428
 32
0.0
 13
346.1421121035057
 23
360.3372318193428
 33
0.0
  0
MTEXT
  5
A25
330
486
100
AcDbEntity
  8
DIM
 62
     0
100
AcDbMText
 10
231.1421121035038
 20
362.2386950821074
 30
0.0
 40
2.5
 41
0.0
 71
     5
 72
     1
  1
230
1001
ACAD
1000
MTEXTBEGIN
1070
    73
1070
     1
1070
    44
1040
1.0
1070
    74
1070
     0
1000
MTEXTEND
  0
POINT
  5
A26
330
486
100
AcDbEntity
  8
DEFPOINTS
 62
     0
100
AcDbPoint
 10
116.1421121035019
 20
431.5465587988119
 30
0.0
  0
POINT
  5
A27
330
486
100
AcDbEntity
  8
DEFPOINTS
 62
     0
100
AcDbPoint
 10
346.1421121035057
 20
429.2027868354097
 30
0.0
  0
POINT
  5
A28
330
486
100
AcDbEntity
  8
DEFPOINTS
 62
     0
100
AcDbPoint
 10
346.1421121035057
 20
360.3372318193428
 30
0.0
  0
ENDBLK
  5
491
330
486
100
AcDbEntity
  8
0
100
AcDbBlockEnd
  0
BLOCK
  5
49D
330
493
100
AcDbEntity
  8
0
100
AcDbBlockBegin
  2
*D8
 70
     1
 10
0.0
 20
0.0
 30
0.0
  3
*D8
  1

  0
LINE
  5
A29
330
493
100
AcDbEntity
  8
DIM
 62
     0
100
AcDbLine
 10
346.1421121035057
 20
428.5777868354098
 30
0.0
 11
346.1421121035057
 21
359.0634886984815
 31
0.0
  0
LINE
  5
A2A
330
493
100
AcDbEntity
  8
DIM
 62
     0
100
AcDbLine
 10
576.1421121035096
 20
427.7965655689449
 30
0.0
 11
576.1421121035096
 21
359.0634886984815
 31
0.0
  0
LINE
  5
A2B
330
493
100
AcDbEntity
  8
DIM
 62
     0
100
AcDbLine
 10
348.6421121035057
 20
360.3134886984814
 30
0.0
 11
573.6421121035097
 21
360.3134886984814
 31
0.0
  0
SOLID
  5
A2C
330
493
100
AcDbEntity
  8
DIM
 62
     0
100
AcDbTrace
 10
348.6421121035057
 20
360.7301553651481
 30
0.0
 11
348.6421121035057
 21
359.8968220318147
 31
0.0
 12
346.1421121035057
 22
360.3134886984814
 32
0.0
 13
346.1421121035057
 23
360.3134886984814
 33
0.0
  0
SOLID
  5
A2D
330
493
100
AcDbEntity
  8
DIM
 62
     0
100
AcDbTrace
 10
573.6421121035097
 20
360.7301553651481
 30
0.0
 11
573.6421121035097
 21
359.8968220318147
 31
0.0
 12
576.1421121035096
 22
360.3134886984814
 32
0.0
 13
576.1421121035096
 23
360.3134886984814
 33
0.0
  0
MTEXT
  5
A2E
330
493
100
AcDbEntity
  8
DIM
 62
     0
100
AcDbMText
 10
461.1421121035077
 20
362.2149519612461
 30
0.0
 40
2.5
 41
0.0
 71
     5
 72
     1
  1
230
1001
ACAD
1000
MTEXTBEGIN
1070
    73
1070
     1
1070
    44
1040
1.0
1070
    74
1070
     0
1000
MTEXTEND
  0
POINT
  5
A2F
330
493
100
AcDbEntity
  8
DEFPOINTS
 62
     0
100
AcDbPoint
 10
346.1421121035057
 20
429.2027868354097
 30
0.0
  0
POINT
  5
A30
330
493
100
AcDbEntity
  8
DEFPOINTS
 62
     0
100
AcDbPoint
 10
576.1421121035096
 20
428.4215655689449
 30
0.0
  0
POINT
  5
A31
330
493
100
AcDbEntity
  8
DEFPOINTS
 62
     0
100
AcDbPoint
 10
576.1421121035096
 20
360.3134886984814
 30
0.0
  0
ENDBLK
  5
49E
330
493
100
AcDbEntity
  8
0
100
AcDbBlockEnd
  0
BLOCK
  5
4AA
330
4A0
100
AcDbEntity
  8
0
100
AcDbBlockBegin
  2
*D9
 70
     1
 10
0.0
 20
0.0
 30
0.0
  3
*D9
  1

  0
LINE
  5
A32
330
4A0
100
AcDbEntity
  8
DIM
 62
     0
100
AcDbLine
 10
576.1421121035096
 20
427.7965655689449
 30
0.0
 11
576.1421121035096
 21
358.9479258168789
 31
0.0
  0
LINE
  5
A33
330
4A0
100
AcDbEntity
  8
DIM
 62
     0
100
AcDbLine
 10
806.1421121035142
 20
428.5777868354025
 30
0.0
 11
806.1421121035142
 21
358.9479258168789
 31
0.0
  0
LINE
  5
A34
330
4A0
100
AcDbEntity
  8
DIM
 62
     0
100
AcDbLine
 10
578.6421121035097
 20
360.1979258168789
 30
0.0
 11
803.6421121035143
 21
360.1979258168789
 31
0.0
  0
SOLID
  5
A35
330
4A0
100
AcDbEntity
  8
DIM
 62
     0
100
AcDbTrace
 10
578.6421121035097
 20
360.6145924835456
 30
0.0
 11
578.6421121035097
 21
359.7812591502123
 31
0.0
 12
576.1421121035096
 22
360.1979258168789
 32
0.0
 13
576.1421121035096
 23
360.1979258168789
 33
0.0
  0
SOLID
  5
A36
330
4A0
100
AcDbEntity
  8
DIM
 62
     0
100
AcDbTrace
 10
803.6421121035143
 20
360.6145924835456
 30
0.0
 11
803.6421121035143
 21
359.7812591502123
 31
0.0
 12
806.1421121035142
 22
360.1979258168789
 32
0.0
 13
806.1421121035142
 23
360.1979258168789
 33
0.0
  0
MTEXT
  5
A37
330
4A0
100
AcDbEntity
  8
DIM
 62
     0
100
AcDbMText
 10
691.1421121035119
 20
362.0993890796436
 30
0.0
 40
2.5
 41
0.0
 71
     5
 72
     1
  1
230
1001
ACAD
1000
MTEXTBEGIN
1070
    73
1070
     1
1070
    44
1040
1.0
1070
    74
1070
     0
1000
MTEXTEND
  0
POINT
  5
A38
330
4A0
100
AcDbEntity
  8
DEFPOINTS
 62
     0
100
AcDbPoint
 10
576.1421121035096
 20
428.4215655689449
 30
0.0
  0
POINT
  5
A39
330
4A0
100
AcDbEntity
  8
DEFPOINTS
 62
     0
100
AcDbPoint
 10
806.1421121035142
 20
429.2027868354025
 30
0.0
  0
POINT
  5
A3A
330
4A0
100
AcDbEntity
  8
DEFPOINTS
 62
     0
100
AcDbPoint
 10
806.1421121035142
 20
360.1979258168789
 30
0.0
  0
ENDBLK
  5
4AB
330
4A0
100
AcDbEntity
  8
0
100
AcDbBlockEnd
  0
BLOCK
  5
4B7
330
4AD
100
AcDbEntity
  8
0
100
AcDbBlockBegin
  2
*D10
 70
     1
 10
0.0
 20
0.0
 30
0.0
  3
*D10
  1

  0
LINE
  5
A3B
330
4AD
100
AcDbEntity
  8
DIM
 62
     0
100
AcDbLine
 10
806.1421121035142
 20
428.5777868354025
 30
0.0
 11
806.1421121035142
 21
358.8712534044307
 31
0.0
  0
LINE
  5
A3C
330
4AD
100
AcDbEntity
  8
DIM
 62
     0
100
AcDbLine
 10
1036.142112103511
 20
430.9215587988119
 30
0.0
 11
1036.142112103511
 21
358.8712534044307
 31
0.0
  0
LINE
  5
A3D
330
4AD
100
AcDbEntity
  8
DIM
 62
     0
100
AcDbLine
 10
808.6421121035142
 20
360.1212534044307
 30
0.0
 11
1033.642112103511
 21
360.1212534044307
 31
0.0
  0
SOLID
  5
A3E
330
4AD
100
AcDbEntity
  8
DIM
 62
     0
100
AcDbTrace
 10
808.6421121035142
 20
360.5379200710974
 30
0.0
 11
808.6421121035142
 21
359.704586737764
 31
0.0
 12
806.1421121035142
 22
360.1212534044307
 32
0.0
 13
806.1421121035142
 23
360.1212534044307
 33
0.0
  0
SOLID
  5
A3F
330
4AD
100
AcDbEntity
  8
DIM
 62
     0
100
AcDbTrace
 10
1033.642112103511
 20
360.5379200710974
 30
0.0
 11
1033.642112103511
 21
359.704586737764
 31
0.0
 12
1036.142112103511
 22
360.1212534044307
 32
0.0
 13
1036.142112103511
 23
360.1212534044307
 33
0.0
  0
MTEXT
  5
A40
330
4AD
100
AcDbEntity
  8
DIM
 62
     0
100
AcDbMText
 10
921.1421121035126
 20
362.0227166671953
 30
0.0
 40
2.5
 41
0.0
 71
     5
 72
     1
  1
230
1001
ACAD
1000
MTEXTBEGIN
1070
    73
1070
     1
1070
    44
1040
1.0
1070
    74
1070
     0
1000
MTEXTEND
  0
POINT
  5
A41
330
4AD
100
AcDbEntity
  8
DEFPOINTS
 62
     0
100
AcDbPoint
 10
806.1421121035142
 20
429.2027868354025
 30
0.0
  0
POINT
  5
A42
330
4AD
100
AcDbEntity
  8
DEFPOINTS
 62
     0
100
AcDbPoint
 10
1036.142112103511
 20
431.5465587988119
 30
0.0
  0
POINT
  5
A43
330
4AD
100
AcDbEntity
  8
DEFPOINTS
 62
     0
100
AcDbPoint
 10
1036.142112103511
 20
360.1212534044307
 30
0.0
  0
ENDBLK
  5
4B8
330
4AD
100
AcDbEntity
  8
0
100
AcDbBlockEnd
  0
BLOCK
  5
4C6
330
4BA
100
AcDbEntity
  8
0
100
AcDbBlockBegin
  2
*D11
 70
     1
 10
0.0
 20
0.0
 30
0.0
  3
*D11
  1

  0
LINE
  5
A44
330
4BA
100
AcDbEntity
  8
DIM
 62
     0
100
AcDbLine
 10
668.7667582763959
 20
428.5465587988046
 30
0.0
 11
687.8170583481322
 21
428.5465587988046
 31
0.0
  0
LINE
  5
A45
330
4BA
100
AcDbEntity
  8
DIM
 62
     0
100
AcDbLine
 10
668.7667582763957
 20
431.5465587988088
 30
0.0
 11
687.8170583481322
 21
431.5465587988088
 31
0.0
  0
LINE
  5
A46
330
4BA
100
AcDbEntity
  8
DIM
 62
     0
100
AcDbLine
 10
686.5670583481322
 20
426.0465587988046
 30
0.0
 11
686.5670583481322
 21
423.5465587988046
 31
0.0
  0
LINE
  5
A47
330
4BA
100
AcDbEntity
  8
DIM
 62
     0
100
AcDbLine
 10
686.5670583481322
 20
434.0465587988088
 30
0.0
 11
686.5670583481322
 21
436.5465587988088
 31
0.0
  0
LINE
  5
A48
330
4BA
100
AcDbEntity
  8
DIM
 62
     0
100
AcDbLine
 10
686.5670583481322
 20
428.5465587988046
 30
0.0
 11
686.5670583481322
 21
431.5465587988088
 31
0.0
  0
SOLID
  5
A49
330
4BA
100
AcDbEntity
  8
DIM
 62
     0
100
AcDbTrace
 10
686.1503916814656
 20
426.0465587988046
 30
0.0
 11
686.9837250147988
 21
426.0465587988046
 31
0.0
 12
686.5670583481322
 22
428.5465587988046
 32
0.0
 13
686.5670583481322
 23
428.5465587988046
 33
0.0
  0
SOLID
  5
A4A
330
4BA
100
AcDbEntity
  8
DIM
 62
     0
100
AcDbTrace
 10
686.1503916814656
 20
434.0465587988088
 30
0.0
 11
686.9837250147988
 21
434.0465587988088
 31
0.0
 12
686.5670583481322
 22
431.5465587988088
 32
0.0
 13
686.5670583481322
 23
431.5465587988088
 33
0.0
  0
MTEXT
  5
A4B
330
4BA
100
AcDbEntity
  8
DIM
 62
     0
100
AcDbMText
 10
684.6920583481321
 20
430.0465587988068
 30
0.0
 40
2.5
 41
0.0
 71
     5
 72
     1
  1
3
 11
0.0000000000000001
 21
1.0
 31
0.0
1001
ACAD
1000
MTEXTBEGIN
1070
    73
1070
     1
1070
    44
1040
1.0
1070
    74
1070
     0
1000
MTEXTEND
  0
POINT
  5
A4C
330
4BA
100
AcDbEntity
  8
DEFPOINTS
 62
     0
100
AcDbPoint
 10
668.1417582763958
 20
428.5465587988046
 30
0.0
  0
POINT
  5
A4D
330
4BA
100
AcDbEntity
  8
DEFPOINTS
 62
     0
100
AcDbPoint
 10
668.1417582763957
 20
431.5465587988088
 30
0.0
  0
POINT
  5
A4E
330
4BA
100
AcDbEntity
  8
DEFPOINTS
 62
     0
100
AcDbPoint
 10
686.5670583481322
 20
431.5465587988088
 30
0.0
  0
ENDBLK
  5
4C7
330
4BA
100
AcDbEntity
  8
0
100
AcDbBlockEnd
  0
BLOCK
  5
4E3
330
4D9
100
AcDbEntity
  8
0
100
AcDbBlockBegin
  2
*D12
 70
     1
 10
0.0
 20
0.0
 30
0.0
  3
*D12
  1

  0
LINE
  5
A4F
330
4D9
100
AcDbEntity
  8
DIM
 62
     0
100
AcDbLine
 10
806.7671121035143
 20
564.2027868354025
 30
0.0
 11
828.4814956482842
 21
564.2027868354025
 31
0.0
  0
LINE
  5
A50
330
4D9
100
AcDbEntity
  8
DIM
 62
     0
100
AcDbLine
 10
806.7671121035143
 20
494.2027868354025
 30
0.0
 11
828.4814956482842
 21
494.2027868354025
 31
0.0
  0
LINE
  5
A51
330
4D9
100
AcDbEntity
  8
DIM
 62
     0
100
AcDbLine
 10
827.2314956482841
 20
561.7027868354025
 30
0.0
 11
827.2314956482841
 21
496.7027868354025
 31
0.0
  0
SOLID
  5
A52
330
4D9
100
AcDbEntity
  8
DIM
 62
     0
100
AcDbTrace
 10
826.8148289816176
 20
561.7027868354025
 30
0.0
 11
827.6481623149507
 21
561.7027868354025
 31
0.0
 12
827.2314956482841
 22
564.2027868354025
 32
0.0
 13
827.2314956482841
 23
564.2027868354025
 33
0.0
  0
SOLID
  5
A53
330
4D9
100
AcDbEntity
  8
DIM
 62
     0
100
AcDbTrace
 10
826.8148289816176
 20
496.7027868354025
 30
0.0
 11
827.6481623149507
 21
496.7027868354025
 31
0.0
 12
827.2314956482841
 22
494.2027868354025
 32
0.0
 13
827.2314956482841
 23
494.2027868354025
 33
0.0
  0
MTEXT
  5
A54
330
4D9
100
AcDbEntity
  8
DIM
 62
     0
100
AcDbMText
 10
825.3300323855194
 20
529.2027868354027
 30
0.0
 40
2.5
 41
0.0
 71
     5
 72
     1
  1
70
 11
0.0000000000000001
 21
1.0
 31
0.0
1001
ACAD
1000
MTEXTBEGIN
1070
    73
1070
     1
1070
    44
1040
1.0
1070
    74
1070
     0
1000
MTEXTEND
  0
POINT
  5
A55
330
4D9
100
AcDbEntity
  8
DEFPOINTS
 62
     0
100
AcDbPoint
 10
806.1421121035142
 20
564.2027868354025
 30
0.0
  0
POINT
  5
A56
330
4D9
100
AcDbEntity
  8
DEFPOINTS
 62
     0
100
AcDbPoint
 10
806.1421121035142
 20
494.2027868354025
 30
0.0
  0
POINT
  5
A57
330
4D9
100
AcDbEntity
  8
DEFPOINTS
 62
     0
100
AcDbPoint
 10
827.2314956482841
 20
494.2027868354025
 30
0.0
  0
ENDBLK
  5
4E4
330
4D9
100
AcDbEntity
  8
0
100
AcDbBlockEnd
  0
BLOCK
  5
4F0
330
4E6
100
AcDbEntity
  8
0
100
AcDbBlockBegin
  2
*D13
 70
     1
 10
0.0
 20
0.0
 30
0.0
  3
*D13
  1

  0
LINE
  5
A58
330
4E6
100
AcDbEntity
  8
DIM
 62
     0
100
AcDbLine
 10
576.7671121035097
 20
603.4215655689449
 30
0.0
 11
598.8062785371807
 21
603.4215655689449
 31
0.0
  0
LINE
  5
A59
330
4E6
100
AcDbEntity
  8
DIM
 62
     0
100
AcDbLine
 10
576.7671121035097
 20
533.4215655689449
 30
0.0
 11
598.8062785371807
 21
533.4215655689449
 31
0.0
  0
LINE
  5
A5A
330
4E6
100
AcDbEntity
  8
DIM
 62
     0
100
AcDbLine
 10
597.5562785371807
 20
600.9215655689449
 30
0.0
 11
597.5562785371807
 21
535.921565568945
 31
0.0
  0
SOLID
  5
A5B
330
4E6
100
AcDbEntity
  8
DIM
 62
     0
100
AcDbTrace
 10
597.1396118705142
 20
600.9215655689449
 30
0.0
 11
597.9729452038474
 21
600.9215655689449
 31
0.0
 12
597.5562785371807
 22
603.4215655689449
 32
0.0
 13
597.5562785371807
 23
603.4215655689449
 33
0.0
  0
SOLID
  5
A5C
330
4E6
100
AcDbEntity
  8
DIM
 62
     0
100
AcDbTrace
 10
597.1396118705142
 20
535.921565568945
 30
0.0
 11
597.9729452038474
 21
535.921565568945
 31
0.0
 12
597.5562785371807
 22
533.4215655689449
 32
0.0
 13
597.5562785371807
 23
533.4215655689449
 33
0.0
  0
MTEXT
  5
A5D
330
4E6
100
AcDbEntity
  8
DIM
 62
     0
100
AcDbMText
 10
595.654815274416
 20
568.4215655689451
 30
0.0
 40
2.5
 41
0.0
 71
     5
 72
     1
  1
70
 11
0.0000000000000001
 21
1.0
 31
0.0
1001
ACAD
1000
MTEXTBEGIN
1070
    73
1070
     1
1070
    44
1040
1.0
1070
    74
1070
     0
1000
MTEXTEND
  0
POINT
  5
A5E
330
4E6
100
AcDbEntity
  8
DEFPOINTS
 62
     0
100
AcDbPoint
 10
576.1421121035096
 20
603.4215655689449
 30
0.0
  0
POINT
  5
A5F
330
4E6
100
AcDbEntity
  8
DEFPOINTS
 62
     0
100
AcDbPoint
 10
576.1421121035096
 20
533.4215655689449
 30
0.0
  0
POINT
  5
A60
330
4E6
100
AcDbEntity
  8
DEFPOINTS
 62
     0
100
AcDbPoint
 10
597.5562785371807
 20
533.4215655689449
 30
0.0
  0
ENDBLK
  5
4F1
330
4E6
100
AcDbEntity
  8
0
100
AcDbBlockEnd
  0
BLOCK
  5
4FD
330
4F3
100
AcDbEntity
  8
0
100
AcDbBlockBegin
  2
*D14
 70
     1
 10
0.0
 20
0.0
 30
0.0
  3
*D14
  1

  0
LINE
  5
A61
330
4F3
100
AcDbEntity
  8
DIM
 62
     0
100
AcDbLine
 10
346.7671121035057
 20
634.2027868354098
 30
0.0
 11
365.4693799413016
 21
634.2027868354098
 31
0.0
  0
LINE
  5
A62
330
4F3
100
AcDbEntity
  8
DIM
 62
     0
100
AcDbLine
 10
346.7671121035057
 20
564.2027868354098
 30
0.0
 11
365.4693799413016
 21
564.2027868354098
 31
0.0
  0
LINE
  5
A63
330
4F3
100
AcDbEntity
  8
DIM
 62
     0
100
AcDbLine
 10
364.2193799413016
 20
631.7027868354098
 30
0.0
 11
364.2193799413016
 21
566.7027868354097
 31
0.0
  0
SOLID
  5
A64
330
4F3
100
AcDbEntity
  8
DIM
 62
     0
100
AcDbTrace
 10
363.802713274635
 20
631.7027868354098
 30
0.0
 11
364.6360466079683
 21
631.7027868354098
 31
0.0
 12
364.2193799413016
 22
634.2027868354098
 32
0.0
 13
364.2193799413016
 23
634.2027868354098
 33
0.0
  0
SOLID
  5
A65
330
4F3
100
AcDbEntity
  8
DIM
 62
     0
100
AcDbTrace
 10
363.802713274635
 20
566.7027868354097
 30
0.0
 11
364.6360466079683
 21
566.7027868354097
 31
0.0
 12
364.2193799413016
 22
564.2027868354098
 32
0.0
 13
364.2193799413016
 23
564.2027868354098
 33
0.0
  0
MTEXT
  5
A66
330
4F3
100
AcDbEntity
  8
DIM
 62
     0
100
AcDbMText
 10
362.3179166785369
 20
599.2027868354099
 30
0.0
 40
2.5
 41
0.0
 71
     5
 72
     1
  1
70
 11
0.0000000000000001
 21
1.0
 31
0.0
1001
ACAD
1000
MTEXTBEGIN
1070
    73
1070
     1
1070
    44
1040
1.0
1070
    74
1070
     0
1000
MTEXTEND
  0
POINT
  5
A67
330
4F3
100
AcDbEntity
  8
DEFPOINTS
 62
     0
100
AcDbPoint
 10
346.1421121035057
 20
634.2027868354098
 30
0.0
  0
POINT
  5
A68
330
4F3
100
AcDbEntity
  8
DEFPOINTS
 62
     0
100
AcDbPoint
 10
346.1421121035057
 20
564.2027868354098
 30
0.0
  0
POINT
  5
A69
330
4F3
100
AcDbEntity
  8
DEFPOINTS
 62
     0
100
AcDbPoint
 10
364.2193799413016
 20
564.2027868354098
 30
0.0
  0
ENDBLK
  5
4FE
330
4F3
100
AcDbEntity
  8
0
100
AcDbBlockEnd
  0
BLOCK
  5
50C
330
502
100
AcDbEntity
  8
0
100
AcDbBlockBegin
  2
*D15
 70
     1
 10
0.0
 20
0.0
 30
0.0
  3
*D15
  1

  0
LINE
  5
A6A
330
502
100
AcDbEntity
  8
DIM
 62
     0
100
AcDbLine
 10
932.7674462654895
 20
951.7474217318337
 30
0.0
 11
978.7646967114193
 21
951.7474217318337
 31
0.0
  0
LINE
  5
A6B
330
502
100
AcDbEntity
  8
DIM
 62
     0
100
AcDbLine
 10
932.7674462654895
 20
751.7474217317446
 30
0.0
 11
978.7646967114191
 21
751.7474217317446
 31
0.0
  0
LINE
  5
A6C
330
502
100
AcDbEntity
  8
DIM
 62
     0
100
AcDbLine
 10
977.5146967114194
 20
949.2474217318338
 30
0.0
 11
977.5146967114192
 21
754.2474217317447
 31
0.0
  0
SOLID
  5
A6D
330
502
100
AcDbEntity
  8
DIM
 62
     0
100
AcDbTrace
 10
977.0980300447527
 20
949.2474217318338
 30
0.0
 11
977.9313633780859
 21
949.2474217318338
 31
0.0
 12
977.5146967114194
 22
951.7474217318337
 32
0.0
 13
977.5146967114194
 23
951.7474217318337
 33
0.0
  0
SOLID
  5
A6E
330
502
100
AcDbEntity
  8
DIM
 62
     0
100
AcDbTrace
 10
977.0980300447526
 20
754.2474217317447
 30
0.0
 11
977.9313633780859
 21
754.2474217317447
 31
0.0
 12
977.5146967114192
 22
751.7474217317446
 32
0.0
 13
977.5146967114192
 23
751.7474217317446
 33
0.0
  0
MTEXT
  5
A6F
330
502
100
AcDbEntity
  8
DIM
 62
     0
100
AcDbMText
 10
975.6132334486544
 20
851.7474217317893
 30
0.0
 40
2.5
 41
0.0
 71
     5
 72
     1
  1
200
 11
0.0000000000000001
 21
1.0
 31
0.0
1001
ACAD
1000
MTEXTBEGIN
1070
    73
1070
     1
1070
    44
1040
1.0
1070
    74
1070
     0
1000
MTEXTEND
  0
POINT
  5
A70
330
502
100
AcDbEntity
  8
DEFPOINTS
 62
     0
100
AcDbPoint
 10
932.1424462654896
 20
951.7474217318337
 30
0.0
  0
POINT
  5
A71
330
502
100
AcDbEntity
  8
DEFPOINTS
 62
     0
100
AcDbPoint
 10
932.1424462654896
 20
751.7474217317446
 30
0.0
  0
POINT
  5
A72
330
502
100
AcDbEntity
  8
DEFPOINTS
 62
     0
100
AcDbPoint
 10
977.5146967114192
 20
751.7474217317446
 30
0.0
  0
ENDBLK
  5
50D
330
502
100
AcDbEntity
  8
0
100
AcDbBlockEnd
  0
BLOCK
  5
519
330
50F
100
AcDbEntity
  8
0
100
AcDbBlockBegin
  2
*D16
 70
     1
 10
0.0
 20
0.0
 30
0.0
  3
*D16
  1

  0
LINE
  5
A73
330
50F
100
AcDbEntity
  8
DIM
 62
     0
100
AcDbLine
 10
931.9738354000033
 20
952.349248431175
 30
0.0
 11
901.0447644748133
 21
1062.74510349615
 31
0.0
  0
LINE
  5
A74
330
50F
100
AcDbEntity
  8
DIM
 62
     0
100
AcDbLine
 10
248.2987049479864
 20
760.8073052387121
 30
0.0
 11
217.3696340227965
 21
871.2031603036871
 31
0.0
  0
LINE
  5
A75
330
50F
100
AcDbEntity
  8
DIM
 62
     0
100
AcDbLine
 10
898.9746794084208
 20
1060.867006635523
 30
0.0
 11
220.114162551134
 21
870.6739503669496
 31
0.0
  0
SOLID
  5
A76
330
50F
100
AcDbEntity
  8
DIM
 62
     0
100
AcDbTrace
 10
898.8622721647631
 20
1061.268224435083
 30
0.0
 11
899.0870866520783
 21
1060.465788835962
 31
0.0
 12
901.3819862057857
 22
1061.541450097468
 32
0.0
 13
901.3819862057857
 23
1061.541450097468
 33
0.0
  0
SOLID
  5
A77
330
50F
100
AcDbEntity
  8
DIM
 62
     0
100
AcDbTrace
 10
220.0017553074765
 20
871.0751681665104
 30
0.0
 11
220.2265697947915
 21
870.2727325673889
 31
0.0
 12
217.706855753769
 22
869.9995069050046
 32
0.0
 13
217.706855753769
 23
869.9995069050046
 33
0.0
  0
MTEXT
  5
A78
330
50F
100
AcDbEntity
  8
DIM
 62
     0
100
AcDbMText
 10
559.0314491934973
 20
967.6014406761936
 30
0.0
 40
2.5
 41
0.0
 71
     5
 72
     1
  1
710
 11
0.9629227189459992
 21
0.2697773847779762
 31
0.0
1001
ACAD
1000
MTEXTBEGIN
1070
    73
1070
     1
1070
    44
1040
1.0
1070
    74
1070
     0
1000
MTEXTEND
  0
POINT
  5
A79
330
50F
100
AcDbEntity
  8
DEFPOINTS
 62
     0
100
AcDbPoint
 10
932.1424462654894
 20
951.7474217318337
 30
0.0
  0
POINT
  5
A7A
330
50F
100
AcDbEntity
  8
DEFPOINTS
 62
     0
100
AcDbPoint
 10
248.4673158134727
 20
760.2054785393709
 30
0.0
  0
POINT
  5
A7B
330
50F
100
AcDbEntity
  8
DEFPOINTS
 62
     0
100
AcDbPoint
 10
217.706855753769
 20
869.9995069050046
 30
0.0
  0
ENDBLK
  5
51A
330
50F
100
AcDbEntity
  8
0
100
AcDbBlockEnd
  0
BLOCK
  5
540
330
536
100
AcDbEntity
  8
0
100
AcDbBlockBegin
  2
*D17
 70
     1
 10
0.0
 20
0.0
 30
0.0
  3
*D17
  1

  0
LINE
  5
A7C
330
536
100
AcDbEntity
  8
DIM
 62
     0
100
AcDbLine
 10
880.0188808278694
 20
937.7932809636391
 30
0.0
 11
862.9032588380608
 21
998.8844701915356
 31
0.0
  0
LINE
  5
A7D
330
536
100
AcDbEntity
  8
DIM
 62
     0
100
AcDbLine
 10
931.973835400003
 20
952.3492484311747
 30
0.0
 11
914.8582134101943
 21
1013.440437659071
 31
0.0
  0
LINE
  5
A7E
330
536
100
AcDbEntity
  8
DIM
 62
     0
100
AcDbLine
 10
865.647787366398
 20
998.3552602547982
 30
0.0
 11
912.7881283438018
 21
1011.562340798443
 31
0.0
  0
SOLID
  5
A7F
330
536
100
AcDbEntity
  8
DIM
 62
     0
100
AcDbTrace
 10
865.5353801227406
 20
998.7564780543589
 30
0.0
 11
865.7601946100555
 21
997.9540424552373
 31
0.0
 12
863.2404805690331
 22
997.6808167928531
 32
0.0
 13
863.2404805690331
 23
997.6808167928531
 33
0.0
  0
SOLID
  5
A80
330
536
100
AcDbEntity
  8
DIM
 62
     0
100
AcDbTrace
 10
912.6757211001443
 20
1011.963558598004
 30
0.0
 11
912.9005355874593
 21
1011.161122998883
 31
0.0
 12
915.1954351411667
 22
1012.236784260388
 32
0.0
 13
915.1954351411667
 23
1012.236784260388
 33
0.0
  0
MTEXT
  5
A81
330
536
100
AcDbEntity
  8
DIM
 62
     0
100
AcDbMText
 10
888.7041461641352
 20
1006.792760592982
 30
0.0
 40
2.5
 41
0.0
 71
     5
 72
     1
  1
54
 11
0.9629227189459987
 21
0.2697773847779788
 31
0.0
1001
ACAD
1000
MTEXTBEGIN
1070
    73
1070
     1
1070
    44
1040
1.0
1070
    74
1070
     0
1000
MTEXTEND
  0
POINT
  5
A82
330
536
100
AcDbEntity
  8
DEFPOINTS
 62
     0
100
AcDbPoint
 10
880.1874916933556
 20
937.1914542642977
 30
0.0
  0
POINT
  5
A83
330
536
100
AcDbEntity
  8
DEFPOINTS
 62
     0
100
AcDbPoint
 10
932.1424462654892
 20
951.7474217318335
 30
0.0
  0
POINT
  5
A84
330
536
100
AcDbEntity
  8
DEFPOINTS
 62
     0
100
AcDbPoint
 10
915.1954351411667
 20
1012.236784260388
 30
0.0
  0
ENDBLK
  5
541
330
536
100
AcDbEntity
  8
0
100
AcDbBlockEnd
  0
BLOCK
  5
583
330
579
100
AcDbEntity
  8
0
100
AcDbBlockBegin
  2
*D18
 70
     1
 10
0.0
 20
0.0
 30
0.0
  3
*D18
  1

  0
LINE
  5
A85
330
579
100
AcDbEntity
  8
DIM
 62
     0
100
AcDbLine
 10
247.8654891141322
 20
760.036867673881
 30
0.0
 11
212.4932190533575
 21
750.1267904444938
 31
0.0
  0
LINE
  5
A86
330
579
100
AcDbEntity
  8
DIM
 62
     0
100
AcDbLine
 10
250.5632629619198
 20
750.4076404844231
 30
0.0
 11
215.1909929011452
 21
740.497563255036
 31
0.0
  0
LINE
  5
A87
330
579
100
AcDbEntity
  8
DIM
 62
     0
100
AcDbLine
 10
214.3713159139867
 20
748.0567053781028
 30
0.0
 11
215.7202028378805
 21
743.2420917833739
 31
0.0
  0
SOLID
  5
A88
330
579
100
AcDbEntity
  8
DIM
 62
     0
100
AcDbTrace
 10
214.7725337135474
 20
748.1691126217607
 30
0.0
 11
213.9700981144259
 21
747.944298134445
 31
0.0
 12
213.6968724520397
 22
750.4640121754672
 32
0.0
 13
213.6968724520397
 23
750.4640121754672
 33
0.0
  0
SOLID
  5
A89
330
579
100
AcDbEntity
  8
DIM
 62
     0
100
AcDbTrace
 10
216.1214206374412
 20
743.3544990270318
 30
0.0
 11
215.3189850383197
 21
743.129684539716
 31
0.0
 12
216.3946462998274
 22
740.8347849860095
 32
0.0
 13
216.3946462998274
 23
740.8347849860095
 33
0.0
  0
MTEXT
  5
A8A
330
579
100
AcDbEntity
  8
DIM
 62
     0
100
AcDbMText
 10
216.8767215508904
 20
746.1623703670198
 30
0.0
 40
2.5
 41
0.0
 71
     5
 72
     1
  1
10
 11
0.2697773847787682
 21
-0.9629227189457772
 31
0.0
1001
ACAD
1000
MTEXTBEGIN
1070
    73
1070
     1
1070
    44
1040
1.0
1070
    74
1070
     0
1000
MTEXTEND
  0
POINT
  5
A8B
330
579
100
AcDbEntity
  8
DEFPOINTS
 62
     0
100
AcDbPoint
 10
248.4673158134733
 20
760.2054785393677
 30
0.0
  0
POINT
  5
A8C
330
579
100
AcDbEntity
  8
DEFPOINTS
 62
     0
100
AcDbPoint
 10
251.1650896612609
 20
750.5762513499099
 30
0.0
  0
POINT
  5
A8D
330
579
100
AcDbEntity
  8
DEFPOINTS
 62
     0
100
AcDbPoint
 10
216.3946462998274
 20
740.8347849860095
 30
0.0
  0
ENDBLK
  5
584
330
579
100
AcDbEntity
  8
0
100
AcDbBlockEnd
  0
BLOCK
  5
94F
330
94E
100
AcDbEntity
  8
0
100
AcDbBlockBegin
  2
*U19
 70
     1
 10
97.68869567374531
 20
1254.159920116547
 30
0.0
  3
*U19
  1
*ANON
  0
MTEXT
  5
950
330
94E
100
AcDbEntity
  8
0
100
AcDbMText
 10
215.9636956737453
 20
1201.247420116547
 30
0.0
 40
6.899999999999999
 41
0.0
 71
     9
 72
     5
  1
{\fCityBlueprint|b1|i0|c1|p54;MEDIDAS}
1001
ACAD
1000
MTEXTBEGIN
1070
    73
1070
     1
1070
    44
1040
1.0
1070
    74
1070
     0
1000
MTEXTEND
  0
MTEXT
  5
951
330
94E
100
AcDbEntity
  8
0
100
AcDbMText
 10
219.4136956737453
 20
1201.247420116547
 30
0.0
 40
6.899999999999999
 41
0.0
 71
     7
 72
     5
  1
{\fCityBlueprint|b1|i0|c1|p54;FOQUE}
1001
ACAD
1000
MTEXTBEGIN
1070
    73
1070
     1
1070
    44
1040
1.0
1070
    74
1070
     0
1000
MTEXTEND
  0
MTEXT
  5
952
330
94E
100
AcDbEntity
  8
0
100
AcDbMText
 10
405.9386956737453
 20
1201.247420116547
 30
0.0
 40
6.899999999999999
 41
0.0
 71
     8
 72
     5
  1
{\fCityBlueprint|b1|i0|c1|p54;AREAS}
1001
ACAD
1000
MTEXTBEGIN
1070
    73
1070
     1
1070
    44
1040
1.0
1070
    74
1070
     0
1000
MTEXTEND
  0
MTEXT
  5
953
330
94E
100
AcDbEntity
  8
0
100
AcDbMText
 10
187.6886956737453
 20
1186.997420116547
 30
0.0
 40
6.899999999999999
 41
0.0
 71
     8
 72
     5
  1
{\fCityBlueprint|b0|i0|c1|p54;a=}
1001
ACAD
1000
MTEXTBEGIN
1070
    73
1070
     1
1070
    44
1040
1.0
1070
    74
1070
     0
1000
MTEXTEND
  0
MTEXT
  5
954
330
94E
100
AcDbEntity
  8
0
100
AcDbMText
 10
247.6886956737453
 20
1186.997420116547
 30
0.0
 40
6.899999999999999
 41
0.0
 71
     8
 72
     5
  1
{\fCityBlueprint|b0|i0|c1|p54;5,4}
1001
ACAD
1000
MTEXTBEGIN
1070
    73
1070
     1
1070
    44
1040
1.0
1070
    74
1070
     0
1000
MTEXTEND
  0
MTEXT
  5
955
330
94E
100
AcDbEntity
  8
0
100
AcDbMText
 10
405.9386956737453
 20
1186.997420116547
 30
0.0
 40
6.899999999999999
 41
0.0
 71
     8
 72
     5
  1
{\fCityBlueprint|b0|i0|c1|p54;F1=}
1001
ACAD
1000
MTEXTBEGIN
1070
    73
1070
     1
1070
    44
1040
1.0
1070
    74
1070
     0
1000
MTEXTEND
  0
MTEXT
  5
956
330
94E
100
AcDbEntity
  8
0
100
AcDbMText
 10
465.9386956737453
 20
1186.997420116547
 30
0.0
 40
6.899999999999999
 41
0.0
 71
     8
 72
     5
  1
{\fCityBlueprint|b0|i0|c1|p54;51,84}
1001
ACAD
1000
MTEXTBEGIN
1070
    73
1070
     1
1070
    44
1040
1.0
1070
    74
1070
     0
1000
MTEXTEND
  0
MTEXT
  5
957
330
94E
100
AcDbEntity
  8
0
100
AcDbMText
 10
497.6636956737453
 20
1186.997420116547
 30
0.0
 40
6.899999999999999
 41
0.0
 71
     7
 72
     5
  1
{\fCityBlueprint|b0|i0|c1|p54;cm^ 2}
1001
ACAD
1000
MTEXTBEGIN
1070
    73
1070
     1
1070
    44
1040
1.0
1070
    74
1070
     0
1000
MTEXTEND
  0
MTEXT
  5
958
330
94E
100
AcDbEntity
  8
0
100
AcDbMText
 10
187.6886956737453
 20
1172.747420116547
 30
0.0
 40
6.899999999999999
 41
0.0
 71
     8
 72
     5
  1
{\fCityBlueprint|b0|i0|c1|p54;b=}
1001
ACAD
1000
MTEXTBEGIN
1070
    73
1070
     1
1070
    44
1040
1.0
1070
    74
1070
     0
1000
MTEXTEND
  0
MTEXT
  5
959
330
94E
100
AcDbEntity
  8
0
100
AcDbMText
 10
247.6886956737453
 20
1172.747420116547
 30
0.0
 40
6.899999999999999
 41
0.0
 71
     8
 72
     5
  1
{\fCityBlueprint|b0|i0|c1|p54;65,6}
1001
ACAD
1000
MTEXTBEGIN
1070
    73
1070
     1
1070
    44
1040
1.0
1070
    74
1070
     0
1000
MTEXTEND
  0
MTEXT
  5
95A
330
94E
100
AcDbEntity
  8
0
100
AcDbMText
 10
405.9386956737453
 20
1172.747420116547
 30
0.0
 40
6.899999999999999
 41
0.0
 71
     8
 72
     5
  1
{\fCityBlueprint|b0|i0|c1|p54;F2=}
1001
ACAD
1000
MTEXTBEGIN
1070
    73
1070
     1
1070
    44
1040
1.0
1070
    74
1070
     0
1000
MTEXTEND
  0
MTEXT
  5
95B
330
94E
100
AcDbEntity
  8
0
100
AcDbMText
 10
465.9386956737453
 20
1172.747420116547
 30
0.0
 40
6.899999999999999
 41
0.0
 71
     8
 72
     5
  1
{\fCityBlueprint|b0|i0|c1|p54;662,56}
1001
ACAD
1000
MTEXTBEGIN
1070
    73
1070
     1
1070
    44
1040
1.0
1070
    74
1070
     0
1000
MTEXTEND
  0
MTEXT
  5
95C
330
94E
100
AcDbEntity
  8
0
100
AcDbMText
 10
497.6636956737453
 20
1172.747420116547
 30
0.0
 40
6.899999999999999
 41
0.0
 71
     7
 72
     5
  1
{\fCityBlueprint|b0|i0|c1|p54;cm^ 2}
1001
ACAD
1000
MTEXTBEGIN
1070
    73
1070
     1
1070
    44
1040
1.0
1070
    74
1070
     0
1000
MTEXTEND
  0
MTEXT
  5
95D
330
94E
100
AcDbEntity
  8
0
100
AcDbMText
 10
187.6886956737453
 20
1158.497420116547
 30
0.0
 40
6.899999999999999
 41
0.0
 71
     8
 72
     5
  1
{\fCityBlueprint|b0|i0|c1|p54;c=}
1001
ACAD
1000
MTEXTBEGIN
1070
    73
1070
     1
1070
    44
1040
1.0
1070
    74
1070
     0
1000
MTEXTEND
  0
MTEXT
  5
95E
330
94E
100
AcDbEntity
  8
0
100
AcDbMText
 10
247.6886956737453
 20
1158.497420116547
 30
0.0
 40
6.899999999999999
 41
0.0
 71
     8
 72
     5
  1
{\fCityBlueprint|b0|i0|c1|p54;19,2}
1001
ACAD
1000
MTEXTBEGIN
1070
    73
1070
     1
1070
    44
1040
1.0
1070
    74
1070
     0
1000
MTEXTEND
  0
MTEXT
  5
95F
330
94E
100
AcDbEntity
  8
0
100
AcDbMText
 10
187.6886956737453
 20
1144.247420116547
 30
0.0
 40
6.899999999999999
 41
0.0
 71
     8
 72
     5
  1
{\fCityBlueprint|b0|i0|c1|p54;d=}
1001
ACAD
1000
MTEXTBEGIN
1070
    73
1070
     1
1070
    44
1040
1.0
1070
    74
1070
     0
1000
MTEXTEND
  0
MTEXT
  5
960
330
94E
100
AcDbEntity
  8
0
100
AcDbMText
 10
247.6886956737453
 20
1144.247420116547
 30
0.0
 40
6.899999999999999
 41
0.0
 71
     8
 72
     5
  1
{\fCityBlueprint|b0|i0|c1|p54;1}
1001
ACAD
1000
MTEXTBEGIN
1070
    73
1070
     1
1070
    44
1040
1.0
1070
    74
1070
     0
1000
MTEXTEND
  0
MTEXT
  5
961
330
94E
100
AcDbEntity
  8
0
100
AcDbMText
 10
374.2136956737453
 20
1144.247420116547
 30
0.0
 40
6.899999999999999
 41
0.0
 71
     9
 72
     5
  1
{\fCityBlueprint|b1|i0|c1|p54;TOTAL}
1001
ACAD
1000
MTEXTBEGIN
1070
    73
1070
     1
1070
    44
1040
1.0
1070
    74
1070
     0
1000
MTEXTEND
  0
MTEXT
  5
962
330
94E
100
AcDbEntity
  8
0
100
AcDbMText
 10
377.6636956737453
 20
1144.247420116547
 30
0.0
 40
6.899999999999999
 41
0.0
 71
     7
 72
     5
  1
{\fCityBlueprint|b1|i0|c1|p54;FOQUE=}
1001
ACAD
1000
MTEXTBEGIN
1070
    73
1070
     1
1070
    44
1040
1.0
1070
    74
1070
     0
1000
MTEXTEND
  0
MTEXT
  5
963
330
94E
100
AcDbEntity
  8
0
100
AcDbMText
 10
465.9386956737453
 20
1144.247420116547
 30
0.0
 40
6.899999999999999
 41
0.0
 71
     8
 72
     5
  1
{\fCityBlueprint|b1|i0|c1|p54;714,4}
1001
ACAD
1000
MTEXTBEGIN
1070
    73
1070
     1
1070
    44
1040
1.0
1070
    74
1070
     0
1000
MTEXTEND
  0
MTEXT
  5
964
330
94E
100
AcDbEntity
  8
0
100
AcDbMText
 10
497.6636956737453
 20
1144.247420116547
 30
0.0
 40
6.899999999999999
 41
0.0
 71
     7
 72
     5
  1
{\fCityBlueprint|b1|i0|c1|p54;cm^ 2}
1001
ACAD
1000
MTEXTBEGIN
1070
    73
1070
     1
1070
    44
1040
1.0
1070
    74
1070
     0
1000
MTEXTEND
  0
MTEXT
  5
965
330
94E
100
AcDbEntity
  8
0
100
AcDbMText
 10
215.9636956737453
 20
1115.747420116547
 30
0.0
 40
6.899999999999999
 41
0.0
 71
     9
 72
     5
  1
{\fCityBlueprint|b1|i0|c1|p54;MEDIDAS}
1001
ACAD
1000
MTEXTBEGIN
1070
    73
1070
     1
1070
    44
1040
1.0
1070
    74
1070
     0
1000
MTEXTEND
  0
MTEXT
  5
966
330
94E
100
AcDbEntity
  8
0
100
AcDbMText
 10
219.4136956737453
 20
1115.747420116547
 30
0.0
 40
6.899999999999999
 41
0.0
 71
     7
 72
     5
  1
{\fCityBlueprint|b1|i0|c1|p54;MAYOR}
1001
ACAD
1000
MTEXTBEGIN
1070
    73
1070
     1
1070
    44
1040
1.0
1070
    74
1070
     0
1000
MTEXTEND
  0
MTEXT
  5
967
330
94E
100
AcDbEntity
  8
0
100
AcDbMText
 10
405.9386956737453
 20
1115.747420116547
 30
0.0
 40
6.899999999999999
 41
0.0
 71
     8
 72
     5
  1
{\fCityBlueprint|b1|i0|c1|p54;AREAS}
1001
ACAD
1000
MTEXTBEGIN
1070
    73
1070
     1
1070
    44
1040
1.0
1070
    74
1070
     0
1000
MTEXTEND
  0
MTEXT
  5
968
330
94E
100
AcDbEntity
  8
0
100
AcDbMText
 10
187.6886956737453
 20
1101.497420116547
 30
0.0
 40
6.899999999999999
 41
0.0
 71
     8
 72
     5
  1
{\fCityBlueprint|b0|i0|c1|p54;B0=}
1001
ACAD
1000
MTEXTBEGIN
1070
    73
1070
     1
1070
    44
1040
1.0
1070
    74
1070
     0
1000
MTEXTEND
  0
MTEXT
  5
969
330
94E
100
AcDbEntity
  8
0
100
AcDbMText
 10
247.6886956737453
 20
1101.497420116547
 30
0.0
 40
6.899999999999999
 41
0.0
 71
     8
 72
     5
  1
{\fCityBlueprint|b0|i0|c1|p54;22}
1001
ACAD
1000
MTEXTBEGIN
1070
    73
1070
     1
1070
    44
1040
1.0
1070
    74
1070
     0
1000
MTEXTEND
  0
MTEXT
  5
96A
330
94E
100
AcDbEntity
  8
0
100
AcDbMText
 10
405.9386956737453
 20
1101.497420116547
 30
0.0
 40
6.899999999999999
 41
0.0
 71
     8
 72
     5
  1
{\fCityBlueprint|b0|i0|c1|p54;M1=}
1001
ACAD
1000
MTEXTBEGIN
1070
    73
1070
     1
1070
    44
1040
1.0
1070
    74
1070
     0
1000
MTEXTEND
  0
MTEXT
  5
96B
330
94E
100
AcDbEntity
  8
0
100
AcDbMText
 10
465.9386956737453
 20
1101.497420116547
 30
0.0
 40
6.899999999999999
 41
0.0
 71
     8
 72
     5
  1
{\fCityBlueprint|b0|i0|c1|p54;488,75}
1001
ACAD
1000
MTEXTBEGIN
1070
    73
1070
     1
1070
    44
1040
1.0
1070
    74
1070
     0
1000
MTEXTEND
  0
MTEXT
  5
96C
330
94E
100
AcDbEntity
  8
0
100
AcDbMText
 10
497.6636956737453
 20
1101.497420116547
 30
0.0
 40
6.899999999999999
 41
0.0
 71
     7
 72
     5
  1
{\fCityBlueprint|b0|i0|c1|p54;cm^ 2}
1001
ACAD
1000
MTEXTBEGIN
1070
    73
1070
     1
1070
    44
1040
1.0
1070
    74
1070
     0
1000
MTEXTEND
  0
MTEXT
  5
96D
330
94E
100
AcDbEntity
  8
0
100
AcDbMText
 10
187.6886956737453
 20
1087.247420116547
 30
0.0
 40
6.899999999999999
 41
0.0
 71
     8
 72
     5
  1
{\fCityBlueprint|b0|i0|c1|p54;B1=}
1001
ACAD
1000
MTEXTBEGIN
1070
    73
1070
     1
1070
    44
1040
1.0
1070
    74
1070
     0
1000
MTEXTEND
  0
MTEXT
  5
96E
330
94E
100
AcDbEntity
  8
0
100
AcDbMText
 10
247.6886956737453
 20
1087.247420116547
 30
0.0
 40
6.899999999999999
 41
0.0
 71
     8
 72
     5
  1
{\fCityBlueprint|b0|i0|c1|p54;20,5}
1001
ACAD
1000
MTEXTBEGIN
1070
    73
1070
     1
1070
    44
1040
1.0
1070
    74
1070
     0
1000
MTEXTEND
  0
MTEXT
  5
96F
330
94E
100
AcDbEntity
  8
0
100
AcDbMText
 10
405.9386956737453
 20
1087.247420116547
 30
0.0
 40
6.899999999999999
 41
0.0
 71
     8
 72
     5
  1
{\fCityBlueprint|b0|i0|c1|p54;M2=}
1001
ACAD
1000
MTEXTBEGIN
1070
    73
1070
     1
1070
    44
1040
1.0
1070
    74
1070
     0
1000
MTEXTEND
  0
MTEXT
  5
970
330
94E
100
AcDbEntity
  8
0
100
AcDbMText
 10
465.9386956737453
 20
1087.247420116547
 30
0.0
 40
6.899999999999999
 41
0.0
 71
     8
 72
     5
  1
{\fCityBlueprint|b0|i0|c1|p54;437}
1001
ACAD
1000
MTEXTBEGIN
1070
    73
1070
     1
1070
    44
1040
1.0
1070
    74
1070
     0
1000
MTEXTEND
  0
MTEXT
  5
971
330
94E
100
AcDbEntity
  8
0
100
AcDbMText
 10
497.6636956737453
 20
1087.247420116547
 30
0.0
 40
6.899999999999999
 41
0.0
 71
     7
 72
     5
  1
{\fCityBlueprint|b0|i0|c1|p54;cm^ 2}
1001
ACAD
1000
MTEXTBEGIN
1070
    73
1070
     1
1070
    44
1040
1.0
1070
    74
1070
     0
1000
MTEXTEND
  0
MTEXT
  5
972
330
94E
100
AcDbEntity
  8
0
100
AcDbMText
 10
187.6886956737453
 20
1072.997420116547
 30
0.0
 40
6.899999999999999
 41
0.0
 71
     8
 72
     5
  1
{\fCityBlueprint|b0|i0|c1|p54;B2=}
1001
ACAD
1000
MTEXTBEGIN
1070
    73
1070
     1
1070
    44
1040
1.0
1070
    74
1070
     0
1000
MTEXTEND
  0
MTEXT
  5
973
330
94E
100
AcDbEntity
  8
0
100
AcDbMText
 10
247.6886956737453
 20
1072.997420116547
 30
0.0
 40
6.899999999999999
 41
0.0
 71
     8
 72
     5
  1
{\fCityBlueprint|b0|i0|c1|p54;17,5}
1001
ACAD
1000
MTEXTBEGIN
1070
    73
1070
     1
1070
    44
1040
1.0
1070
    74
1070
     0
1000
MTEXTEND
  0
MTEXT
  5
974
330
94E
100
AcDbEntity
  8
0
100
AcDbMText
 10
405.9386956737453
 20
1072.997420116547
 30
0.0
 40
6.899999999999999
 41
0.0
 71
     8
 72
     5
  1
{\fCityBlueprint|b0|i0|c1|p54;M3=}
1001
ACAD
1000
MTEXTBEGIN
1070
    73
1070
     1
1070
    44
1040
1.0
1070
    74
1070
     0
1000
MTEXTEND
  0
MTEXT
  5
975
330
94E
100
AcDbEntity
  8
0
100
AcDbMText
 10
465.9386956737453
 20
1072.997420116547
 30
0.0
 40
6.899999999999999
 41
0.0
 71
     8
 72
     5
  1
{\fCityBlueprint|b0|i0|c1|p54;356,5}
1001
ACAD
1000
MTEXTBEGIN
1070
    73
1070
     1
1070
    44
1040
1.0
1070
    74
1070
     0
1000
MTEXTEND
  0
MTEXT
  5
976
330
94E
100
AcDbEntity
  8
0
100
AcDbMText
 10
497.6636956737453
 20
1072.997420116547
 30
0.0
 40
6.899999999999999
 41
0.0
 71
     7
 72
     5
  1
{\fCityBlueprint|b0|i0|c1|p54;cm^ 2}
1001
ACAD
1000
MTEXTBEGIN
1070
    73
1070
     1
1070
    44
1040
1.0
1070
    74
1070
     0
1000
MTEXTEND
  0
MTEXT
  5
977
330
94E
100
AcDbEntity
  8
0
100
AcDbMText
 10
187.6886956737453
 20
1058.747420116547
 30
0.0
 40
6.899999999999999
 41
0.0
 71
     8
 72
     5
  1
{\fCityBlueprint|b0|i0|c1|p54;=3B}
1001
ACAD
1000
MTEXTBEGIN
1070
    73
1070
     1
1070
    44
1040
1.0
1070
    74
1070
     0
1000
MTEXTEND
  0
MTEXT
  5
978
330
94E
100
AcDbEntity
  8
0
100
AcDbMText
 10
247.6886956737453
 20
1058.747420116547
 30
0.0
 40
6.899999999999999
 41
0.0
 71
     8
 72
     5
  1
{\fCityBlueprint|b0|i0|c1|p54;5,31}
1001
ACAD
1000
MTEXTBEGIN
1070
    73
1070
     1
1070
    44
1040
1.0
1070
    74
1070
     0
1000
MTEXTEND
  0
MTEXT
  5
979
330
94E
100
AcDbEntity
  8
0
100
AcDbMText
 10
405.9386956737453
 20
1058.747420116547
 30
0.0
 40
6.899999999999999
 41
0.0
 71
     8
 72
     5
  1
{\fCityBlueprint|b0|i0|c1|p54;=4M}
1001
ACAD
1000
MTEXTBEGIN
1070
    73
1070
     1
1070
    44
1040
1.0
1070
    74
1070
     0
1000
MTEXTEND
  0
MTEXT
  5
97A
330
94E
100
AcDbEntity
  8
0
100
AcDbMText
 10
465.9386956737453
 20
1058.747420116547
 30
0.0
 40
6.899999999999999
 41
0.0
 71
     8
 72
     5
  1
{\fCityBlueprint|b0|i0|c1|p54;572,822}
1001
ACAD
1000
MTEXTBEGIN
1070
    73
1070
     1
1070
    44
1040
1.0
1070
    74
1070
     0
1000
MTEXTEND
  0
MTEXT
  5
97B
330
94E
100
AcDbEntity
  8
0
100
AcDbMText
 10
497.6636956737453
 20
1058.747420116547
 30
0.0
 40
6.899999999999999
 41
0.0
 71
     7
 72
     5
  1
{\fCityBlueprint|b0|i0|c1|p54;2^ mc}
1001
ACAD
1000
MTEXTBEGIN
1070
    73
1070
     1
1070
    44
1040
1.0
1070
    74
1070
     0
1000
MTEXTEND
  0
MTEXT
  5
97C
330
94E
100
AcDbEntity
  8
0
100
AcDbMText
 10
187.6886956737453
 20
1044.497420116547
 30
0.0
 40
6.899999999999999
 41
0.0
 71
     8
 72
     5
  1
{\fCityBlueprint|b0|i0|c1|p54;B4=}
1001
ACAD
1000
MTEXTBEGIN
1070
    73
1070
     1
1070
    44
1040
1.0
1070
    74
1070
     0
1000
MTEXTEND
  0
MTEXT
  5
97D
330
94E
100
AcDbEntity
  8
0
100
AcDbMText
 10
247.6886956737453
 20
1044.497420116547
 30
0.0
 40
6.899999999999999
 41
0.0
 71
     8
 72
     5
  1
{\fCityBlueprint|b0|i0|c1|p54;6,35}
1001
ACAD
1000
MTEXTBEGIN
1070
    73
1070
     1
1070
    44
1040
1.0
1070
    74
1070
     0
1000
MTEXTEND
  0
MTEXT
  5
97E
330
94E
100
AcDbEntity
  8
0
100
AcDbMText
 10
187.6886956737453
 20
1030.247420116547
 30
0.0
 40
6.899999999999999
 41
0.0
 71
     8
 72
     5
  1
{\fCityBlueprint|b0|i0|c1|p54;Z=}
1001
ACAD
1000
MTEXTBEGIN
1070
    73
1070
     1
1070
    44
1040
1.0
1070
    74
1070
     0
1000
MTEXTEND
  0
MTEXT
  5
97F
330
94E
100
AcDbEntity
  8
0
100
AcDbMText
 10
247.6886956737453
 20
1030.247420116547
 30
0.0
 40
6.899999999999999
 41
0.0
 71
     8
 72
     5
  1
{\fCityBlueprint|b0|i0|c1|p54;23}
1001
ACAD
1000
MTEXTBEGIN
1070
    73
1070
     1
1070
    44
1040
1.0
1070
    74
1070
     0
1000
MTEXTEND
  0
MTEXT
  5
980
330
94E
100
AcDbEntity
  8
0
100
AcDbMText
 10
187.6886956737453
 20
1015.997420116547
 30
0.0
 40
6.899999999999999
 41
0.0
 71
     8
 72
     5
  1
{\fCityBlueprint|b0|i0|c1|p54;Y=}
1001
ACAD
1000
MTEXTBEGIN
1070
    73
1070
     1
1070
    44
1040
1.0
1070
    74
1070
     0
1000
MTEXTEND
  0
MTEXT
  5
981
330
94E
100
AcDbEntity
  8
0
100
AcDbMText
 10
247.6886956737453
 20
1015.997420116547
 30
0.0
 40
6.899999999999999
 41
0.0
 71
     8
 72
     5
  1
{\fCityBlueprint|b0|i0|c1|p54;23}
1001
ACAD
1000
MTEXTBEGIN
1070
    73
1070
     1
1070
    44
1040
1.0
1070
    74
1070
     0
1000
MTEXTEND
  0
MTEXT
  5
982
330
94E
100
AcDbEntity
  8
0
100
AcDbMText
 10
374.2136956737453
 20
1015.997420116547
 30
0.0
 40
6.899999999999999
 41
0.0
 71
     9
 72
     5
  1
{\fCityBlueprint|b1|i0|c1|p54;TOTAL}
1001
ACAD
1000
MTEXTBEGIN
1070
    73
1070
     1
1070
    44
1040
1.0
1070
    74
1070
     0
1000
MTEXTEND
  0
MTEXT
  5
983
330
94E
100
AcDbEntity
  8
0
100
AcDbMText
 10
377.6636956737453
 20
1015.997420116547
 30
0.0
 40
6.899999999999999
 41
0.0
 71
     7
 72
     5
  1
{\fCityBlueprint|b1|i0|c1|p54;MAYOR=}
1001
ACAD
1000
MTEXTBEGIN
1070
    73
1070
     1
1070
    44
1040
1.0
1070
    74
1070
     0
1000
MTEXTEND
  0
MTEXT
  5
984
330
94E
100
AcDbEntity
  8
0
100
AcDbMText
 10
465.9386956737453
 20
1015.997420116547
 30
0.0
 40
6.899999999999999
 41
0.0
 71
     8
 72
     5
  1
{\fCityBlueprint|b1|i0|c1|p54;1510,5}
1001
ACAD
1000
MTEXTBEGIN
1070
    73
1070
     1
1070
    44
1040
1.0
1070
    74
1070
     0
1000
MTEXTEND
  0
MTEXT
  5
985
330
94E
100
AcDbEntity
  8
0
100
AcDbMText
 10
497.6636956737453
 20
1015.997420116547
 30
0.0
 40
6.899999999999999
 41
0.0
 71
     7
 72
     5
  1
{\fCityBlueprint|b1|i0|c1|p54;cm^ 2}
1001
ACAD
1000
MTEXTBEGIN
1070
    73
1070
     1
1070
    44
1040
1.0
1070
    74
1070
     0
1000
MTEXTEND
  0
MTEXT
  5
986
330
94E
100
AcDbEntity
  8
0
100
AcDbMText
 10
187.6886956737453
 20
1000.997420116547
 30
0.0
 40
6.899999999999999
 41
0.0
 71
     8
 72
     5
  1
{\fCityBlueprint|b0|i0|c1|p54;X=}
1001
ACAD
1000
MTEXTBEGIN
1070
    73
1070
     1
1070
    44
1040
1.0
1070
    74
1070
     0
1000
MTEXTEND
  0
MTEXT
  5
987
330
94E
100
AcDbEntity
  8
0
100
AcDbMText
 10
247.6886956737453
 20
1000.997420116547
 30
0.0
 40
6.899999999999999
 41
0.0
 71
     8
 72
     5
  1
{\fCityBlueprint|b0|i0|c1|p54;23}
1001
ACAD
1000
MTEXTBEGIN
1070
    73
1070
     1
1070
    44
1040
1.0
1070
    74
1070
     0
1000
MTEXTEND
  0
MTEXT
  5
988
330
94E
100
AcDbEntity
  8
0
100
AcDbMText
 10
187.6886956737453
 20
985.9974201165476
 30
0.0
 40
6.899999999999999
 41
0.0
 71
     8
 72
     5
  1
{\fCityBlueprint|b0|i0|c1|p54;W=}
1001
ACAD
1000
MTEXTBEGIN
1070
    73
1070
     1
1070
    44
1040
1.0
1070
    74
1070
     0
1000
MTEXTEND
  0
MTEXT
  5
989
330
94E
100
AcDbEntity
  8
0
100
AcDbMText
 10
247.6886956737453
 20
985.9974201165476
 30
0.0
 40
6.899999999999999
 41
0.0
 71
     8
 72
     5
  1
{\fCityBlueprint|b0|i0|c1|p54;23}
1001
ACAD
1000
MTEXTBEGIN
1070
    73
1070
     1
1070
    44
1040
1.0
1070
    74
1070
     0
1000
MTEXTEND
  0
MTEXT
  5
98A
330
94E
100
AcDbEntity
  8
0
100
AcDbMText
 10
342.9386956737453
 20
985.9974201165476
 30
0.0
 40
6.899999999999999
 41
0.0
 71
     8
 72
     5
  1
{\fCityBlueprint|b1|i0|c1|p54;SUPERFICIE }
1001
ACAD
1000
MTEXTBEGIN
1070
    73
1070
     1
1070
    44
1040
1.0
1070
    74
1070
     0
1000
MTEXTEND
  0
MTEXT
  5
98B
330
94E
100
AcDbEntity
  8
0
100
AcDbMText
 10
377.6636956737453
 20
985.9974201165476
 30
0.0
 40
6.899999999999999
 41
0.0
 71
     7
 72
     5
  1
{\fCityBlueprint|b1|i0|c1|p54;TOTAL=}
1001
ACAD
1000
MTEXTBEGIN
1070
    73
1070
     1
1070
    44
1040
1.0
1070
    74
1070
     0
1000
MTEXTEND
  0
MTEXT
  5
98C
330
94E
100
AcDbEntity
  8
0
100
AcDbMText
 10
465.9386956737453
 20
985.9974201165476
 30
0.0
 40
6.899999999999999
 41
0.0
 71
     8
 72
     5
  1
{\fCityBlueprint|b1|i0|c1|p54;2224,9}
1001
ACAD
1000
MTEXTBEGIN
1070
    73
1070
     1
1070
    44
1040
1.0
1070
    74
1070
     0
1000
MTEXTEND
  0
MTEXT
  5
98D
330
94E
100
AcDbEntity
  8
0
100
AcDbMText
 10
497.6636956737453
 20
985.9974201165476
 30
0.0
 40
6.899999999999999
 41
0.0
 71
     7
 72
     5
  1
{\fCityBlueprint|b1|i0|c1|p54;cm^ 2}
1001
ACAD
1000
MTEXTBEGIN
1070
    73
1070
     1
1070
    44
1040
1.0
1070
    74
1070
     0
1000
MTEXTEND
  0
LWPOLYLINE
  5
98E
330
94E
100
AcDbEntity
  8
0
  6
CONTINUOUS
 48
20.0
100
AcDbPolyline
 90
        2
 70
     0
 43
0.0
 10
97.68869567374531
 20
1241.409920116547
 10
615.9386956737453
 20
1241.409920116547
  0
LWPOLYLINE
  5
98F
330
94E
100
AcDbEntity
  8
0
  6
CONTINUOUS
 48
20.0
100
AcDbPolyline
 90
        2
 70
     0
 43
0.0
 10
157.6886956737453
 20
1212.909920116547
 10
277.6886956737453
 20
1212.909920116547
  0
LWPOLYLINE
  5
990
330
94E
100
AcDbEntity
  8
0
  6
CONTINUOUS
 48
20.0
100
AcDbPolyline
 90
        2
 70
     0
 43
0.0
 10
375.9386956737453
 20
1212.909920116547
 10
435.9386956737453
 20
1212.909920116547
  0
LWPOLYLINE
  5
991
330
94E
100
AcDbEntity
  8
0
  6
CONTINUOUS
 48
20.0
100
AcDbPolyline
 90
        2
 70
     0
 43
0.0
 10
157.6886956737453
 20
1198.659920116547
 10
277.6886956737453
 20
1198.659920116547
  0
LWPOLYLINE
  5
992
330
94E
100
AcDbEntity
  8
0
  6
CONTINUOUS
 48
20.0
100
AcDbPolyline
 90
        2
 70
     0
 43
0.0
 10
375.9386956737453
 20
1198.659920116547
 10
555.9386956737453
 20
1198.659920116547
  0
LWPOLYLINE
  5
993
330
94E
100
AcDbEntity
  8
0
  6
CONTINUOUS
 48
20.0
100
AcDbPolyline
 90
        2
 70
     0
 43
0.0
 10
157.6886956737453
 20
1184.409920116547
 10
277.6886956737453
 20
1184.409920116547
  0
LWPOLYLINE
  5
994
330
94E
100
AcDbEntity
  8
0
  6
CONTINUOUS
 48
20.0
100
AcDbPolyline
 90
        2
 70
     0
 43
0.0
 10
375.9386956737453
 20
1184.409920116547
 10
555.9386956737453
 20
1184.409920116547
  0
LWPOLYLINE
  5
995
330
94E
100
AcDbEntity
  8
0
  6
CONTINUOUS
 48
20.0
100
AcDbPolyline
 90
        2
 70
     0
 43
0.0
 10
157.6886956737453
 20
1170.159920116547
 10
277.6886956737453
 20
1170.159920116547
  0
LWPOLYLINE
  5
996
330
94E
100
AcDbEntity
  8
0
  6
CONTINUOUS
 48
20.0
100
AcDbPolyline
 90
        2
 70
     0
 43
0.0
 10
375.9386956737453
 20
1170.159920116547
 10
555.9386956737453
 20
1170.159920116547
  0
LWPOLYLINE
  5
997
330
94E
100
AcDbEntity
  8
0
  6
CONTINUOUS
 48
20.0
100
AcDbPolyline
 90
        2
 70
     0
 43
0.0
 10
157.6886956737453
 20
1155.909920116547
 10
277.6886956737453
 20
1155.909920116547
  0
LWPOLYLINE
  5
998
330
94E
100
AcDbEntity
  8
0
  6
CONTINUOUS
 48
20.0
100
AcDbPolyline
 90
        2
 70
     0
 43
0.0
 10
309.9386956737453
 20
1155.909920116547
 10
555.9386956737453
 20
1155.909920116547
  0
LWPOLYLINE
  5
999
330
94E
100
AcDbEntity
  8
0
  6
CONTINUOUS
 48
20.0
100
AcDbPolyline
 90
        2
 70
     0
 43
0.0
 10
157.6886956737453
 20
1141.659920116547
 10
277.6886956737453
 20
1141.659920116547
  0
LWPOLYLINE
  5
99A
330
94E
100
AcDbEntity
  8
0
  6
CONTINUOUS
 48
20.0
100
AcDbPolyline
 90
        2
 70
     0
 43
0.0
 10
309.9386956737453
 20
1141.659920116547
 10
555.9386956737453
 20
1141.659920116547
  0
LWPOLYLINE
  5
99B
330
94E
100
AcDbEntity
  8
0
  6
CONTINUOUS
 48
20.0
100
AcDbPolyline
 90
        2
 70
     0
 43
0.0
 10
157.6886956737453
 20
1127.409920116547
 10
277.6886956737453
 20
1127.409920116547
  0
LWPOLYLINE
  5
99C
330
94E
100
AcDbEntity
  8
0
  6
CONTINUOUS
 48
20.0
100
AcDbPolyline
 90
        2
 70
     0
 43
0.0
 10
375.9386956737453
 20
1127.409920116547
 10
435.9386956737453
 20
1127.409920116547
  0
LWPOLYLINE
  5
99D
330
94E
100
AcDbEntity
  8
0
  6
CONTINUOUS
 48
20.0
100
AcDbPolyline
 90
        2
 70
     0
 43
0.0
 10
157.6886956737453
 20
1113.159920116547
 10
277.6886956737453
 20
1113.159920116547
  0
LWPOLYLINE
  5
99E
330
94E
100
AcDbEntity
  8
0
  6
CONTINUOUS
 48
20.0
100
AcDbPolyline
 90
        2
 70
     0
 43
0.0
 10
375.9386956737453
 20
1113.159920116547
 10
555.9386956737453
 20
1113.159920116547
  0
LWPOLYLINE
  5
99F
330
94E
100
AcDbEntity
  8
0
  6
CONTINUOUS
 48
20.0
100
AcDbPolyline
 90
        2
 70
     0
 43
0.0
 10
157.6886956737453
 20
1098.909920116547
 10
277.6886956737453
 20
1098.909920116547
  0
LWPOLYLINE
  5
9A0
330
94E
100
AcDbEntity
  8
0
  6
CONTINUOUS
 48
20.0
100
AcDbPolyline
 90
        2
 70
     0
 43
0.0
 10
375.9386956737453
 20
1098.909920116547
 10
555.9386956737453
 20
1098.909920116547
  0
LWPOLYLINE
  5
9A1
330
94E
100
AcDbEntity
  8
0
  6
CONTINUOUS
 48
20.0
100
AcDbPolyline
 90
        2
 70
     0
 43
0.0
 10
157.6886956737453
 20
1084.659920116547
 10
277.6886956737453
 20
1084.659920116547
  0
LWPOLYLINE
  5
9A2
330
94E
100
AcDbEntity
  8
0
  6
CONTINUOUS
 48
20.0
100
AcDbPolyline
 90
        2
 70
     0
 43
0.0
 10
375.9386956737453
 20
1084.659920116547
 10
555.9386956737453
 20
1084.659920116547
  0
LWPOLYLINE
  5
9A3
330
94E
100
AcDbEntity
  8
0
  6
CONTINUOUS
 48
20.0
100
AcDbPolyline
 90
        2
 70
     0
 43
0.0
 10
157.6886956737453
 20
1070.409920116547
 10
277.6886956737453
 20
1070.409920116547
  0
LWPOLYLINE
  5
9A4
330
94E
100
AcDbEntity
  8
0
  6
CONTINUOUS
 48
20.0
100
AcDbPolyline
 90
        2
 70
     0
 43
0.0
 10
375.9386956737453
 20
1070.409920116547
 10
555.9386956737453
 20
1070.409920116547
  0
LWPOLYLINE
  5
9A5
330
94E
100
AcDbEntity
  8
0
  6
CONTINUOUS
 48
20.0
100
AcDbPolyline
 90
        2
 70
     0
 43
0.0
 10
157.6886956737453
 20
1056.159920116547
 10
277.6886956737453
 20
1056.159920116547
  0
LWPOLYLINE
  5
9A6
330
94E
100
AcDbEntity
  8
0
  6
CONTINUOUS
 48
20.0
100
AcDbPolyline
 90
        2
 70
     0
 43
0.0
 10
375.9386956737453
 20
1056.159920116547
 10
555.9386956737453
 20
1056.159920116547
  0
LWPOLYLINE
  5
9A7
330
94E
100
AcDbEntity
  8
0
  6
CONTINUOUS
 48
20.0
100
AcDbPolyline
 90
        2
 70
     0
 43
0.0
 10
157.6886956737453
 20
1041.909920116547
 10
277.6886956737453
 20
1041.909920116547
  0
LWPOLYLINE
  5
9A8
330
94E
100
AcDbEntity
  8
0
  6
CONTINUOUS
 48
20.0
100
AcDbPolyline
 90
        2
 70
     0
 43
0.0
 10
157.6886956737453
 20
1027.659920116547
 10
277.6886956737453
 20
1027.659920116547
  0
LWPOLYLINE
  5
9A9
330
94E
100
AcDbEntity
  8
0
  6
CONTINUOUS
 48
20.0
100
AcDbPolyline
 90
        2
 70
     0
 43
0.0
 10
309.9386956737453
 20
1027.659920116547
 10
555.9386956737453
 20
1027.659920116547
  0
LWPOLYLINE
  5
9AA
330
94E
100
AcDbEntity
  8
0
  6
CONTINUOUS
 48
20.0
100
AcDbPolyline
 90
        2
 70
     0
 43
0.0
 10
157.6886956737453
 20
1013.409920116547
 10
277.6886956737453
 20
1013.409920116547
  0
LWPOLYLINE
  5
9AB
330
94E
100
AcDbEntity
  8
0
  6
CONTINUOUS
 48
20.0
100
AcDbPolyline
 90
        2
 70
     0
 43
0.0
 10
309.9386956737453
 20
1013.409920116547
 10
555.9386956737453
 20
1013.409920116547
  0
LWPOLYLINE
  5
9AC
330
94E
100
AcDbEntity
  8
0
  6
CONTINUOUS
 48
20.0
100
AcDbPolyline
 90
        2
 70
     0
 43
0.0
 10
157.6886956737453
 20
998.4099201165477
 10
277.6886956737453
 20
998.4099201165477
  0
LWPOLYLINE
  5
9AD
330
94E
100
AcDbEntity
  8
0
  6
CONTINUOUS
 48
20.0
100
AcDbPolyline
 90
        2
 70
     0
 43
1.5
 10
309.9386956737453
 20
998.4099201165477
 10
555.9386956737453
 20
998.4099201165477
  0
LWPOLYLINE
  5
9AE
330
94E
100
AcDbEntity
  8
0
  6
CONTINUOUS
 48
20.0
100
AcDbPolyline
 90
        2
 70
     0
 43
0.0
 10
157.6886956737453
 20
983.4099201165477
 10
277.6886956737453
 20
983.4099201165477
  0
LWPOLYLINE
  5
9AF
330
94E
100
AcDbEntity
  8
0
  6
CONTINUOUS
 48
20.0
100
AcDbPolyline
 90
        2
 70
     0
 43
1.5
 10
309.9386956737453
 20
983.4099201165477
 10
555.9386956737453
 20
983.4099201165477
  0
LWPOLYLINE
  5
9B0
330
94E
100
AcDbEntity
  8
0
  6
CONTINUOUS
 48
20.0
100
AcDbPolyline
 90
        2
 70
     0
 43
0.0
 10
97.68869567374531
 20
954.9099201165477
 10
615.9386956737453
 20
954.9099201165477
  0
LWPOLYLINE
  5
9B1
330
94E
100
AcDbEntity
  8
0
  6
CONTINUOUS
 48
20.0
100
AcDbPolyline
 90
        2
 70
     0
 43
0.0
 10
97.68869567374531
 20
1241.409920116547
 10
97.68869567374531
 20
954.9099201165477
  0
LWPOLYLINE
  5
9B2
330
94E
100
AcDbEntity
  8
0
  6
CONTINUOUS
 48
20.0
100
AcDbPolyline
 90
        2
 70
     0
 43
0.0
 10
157.6886956737453
 20
1212.909920116547
 10
157.6886956737453
 20
1141.659920116547
  0
LWPOLYLINE
  5
9B3
330
94E
100
AcDbEntity
  8
0
  6
CONTINUOUS
 48
20.0
100
AcDbPolyline
 90
        2
 70
     0
 43
0.0
 10
157.6886956737453
 20
1127.409920116547
 10
157.6886956737453
 20
983.4099201165477
  0
LWPOLYLINE
  5
9B4
330
94E
100
AcDbEntity
  8
0
  6
CONTINUOUS
 48
20.0
100
AcDbPolyline
 90
        2
 70
     0
 43
0.0
 10
217.6886956737453
 20
1198.659920116547
 10
217.6886956737453
 20
1141.659920116547
  0
LWPOLYLINE
  5
9B5
330
94E
100
AcDbEntity
  8
0
  6
CONTINUOUS
 48
20.0
100
AcDbPolyline
 90
        2
 70
     0
 43
0.0
 10
217.6886956737453
 20
1113.159920116547
 10
217.6886956737453
 20
983.4099201165477
  0
LWPOLYLINE
  5
9B6
330
94E
100
AcDbEntity
  8
0
  6
CONTINUOUS
 48
20.0
100
AcDbPolyline
 90
        2
 70
     0
 43
0.0
 10
277.6886956737453
 20
1212.909920116547
 10
277.6886956737453
 20
1141.659920116547
  0
LWPOLYLINE
  5
9B7
330
94E
100
AcDbEntity
  8
0
  6
CONTINUOUS
 48
20.0
100
AcDbPolyline
 90
        2
 70
     0
 43
0.0
 10
277.6886956737453
 20
1127.409920116547
 10
277.6886956737453
 20
983.4099201165477
  0
LWPOLYLINE
  5
9B8
330
94E
100
AcDbEntity
  8
0
  6
CONTINUOUS
 48
20.0
100
AcDbPolyline
 90
        2
 70
     0
 43
0.0
 10
309.9386956737453
 20
1155.909920116547
 10
309.9386956737453
 20
1141.659920116547
  0
LWPOLYLINE
  5
9B9
330
94E
100
AcDbEntity
  8
0
  6
CONTINUOUS
 48
20.0
100
AcDbPolyline
 90
        2
 70
     0
 43
0.0
 10
309.9386956737453
 20
1027.659920116547
 10
309.9386956737453
 20
1013.409920116547
  0
LWPOLYLINE
  5
9BA
330
94E
100
AcDbEntity
  8
0
  6
CONTINUOUS
 48
20.0
100
AcDbPolyline
 90
        2
 70
     0
 43
1.5
 10
309.9386956737453
 20
998.4099201165477
 10
309.9386956737453
 20
983.4099201165477
  0
LWPOLYLINE
  5
9BB
330
94E
100
AcDbEntity
  8
0
  6
CONTINUOUS
 48
20.0
100
AcDbPolyline
 90
        2
 70
     0
 43
0.0
 10
375.9386956737453
 20
1212.909920116547
 10
375.9386956737453
 20
1170.159920116547
  0
LWPOLYLINE
  5
9BC
330
94E
100
AcDbEntity
  8
0
  6
CONTINUOUS
 48
20.0
100
AcDbPolyline
 90
        2
 70
     0
 43
0.0
 10
375.9386956737453
 20
1127.409920116547
 10
375.9386956737453
 20
1056.159920116547
  0
LWPOLYLINE
  5
9BD
330
94E
100
AcDbEntity
  8
0
  6
CONTINUOUS
 48
20.0
100
AcDbPolyline
 90
        2
 70
     0
 43
0.0
 10
435.9386956737453
 20
1212.909920116547
 10
435.9386956737453
 20
1198.659920116547
  0
LWPOLYLINE
  5
9BE
330
94E
100
AcDbEntity
  8
0
  6
CONTINUOUS
 48
20.0
100
AcDbPolyline
 90
        2
 70
     0
 43
0.0
 10
435.9386956737453
 20
1127.409920116547
 10
435.9386956737453
 20
1113.159920116547
  0
LWPOLYLINE
  5
9BF
330
94E
100
AcDbEntity
  8
0
  6
CONTINUOUS
 48
20.0
100
AcDbPolyline
 90
        2
 70
     0
 43
0.0
 10
555.9386956737453
 20
1198.659920116547
 10
555.9386956737453
 20
1170.159920116547
  0
LWPOLYLINE
  5
9C0
330
94E
100
AcDbEntity
  8
0
  6
CONTINUOUS
 48
20.0
100
AcDbPolyline
 90
        2
 70
     0
 43
0.0
 10
555.9386956737453
 20
1155.909920116547
 10
555.9386956737453
 20
1141.659920116547
  0
LWPOLYLINE
  5
9C1
330
94E
100
AcDbEntity
  8
0
  6
CONTINUOUS
 48
20.0
100
AcDbPolyline
 90
        2
 70
     0
 43
0.0
 10
555.9386956737453
 20
1113.159920116547
 10
555.9386956737453
 20
1056.159920116547
  0
LWPOLYLINE
  5
9C2
330
94E
100
AcDbEntity
  8
0
  6
CONTINUOUS
 48
20.0
100
AcDbPolyline
 90
        2
 70
     0
 43
0.0
 10
555.9386956737453
 20
1027.659920116547
 10
555.9386956737453
 20
1013.409920116547
  0
LWPOLYLINE
  5
9C3
330
94E
100
AcDbEntity
  8
0
  6
CONTINUOUS
 48
20.0
100
AcDbPolyline
 90
        2
 70
     0
 43
1.5
 10
555.9386956737453
 20
998.4099201165477
 10
555.9386956737453
 20
983.4099201165477
  0
LWPOLYLINE
  5
9C4
330
94E
100
AcDbEntity
  8
0
  6
CONTINUOUS
 48
20.0
100
AcDbPolyline
 90
        2
 70
     0
 43
0.0
 10
615.9386956737453
 20
1241.409920116547
 10
615.9386956737453
 20
954.9099201165477
  0
ENDBLK
  5
9C5
330
94E
100
AcDbEntity
  8
0
100
AcDbBlockEnd
  0
BLOCK
  5
9DA
330
9D0
100
AcDbEntity
  8
0
100
AcDbBlockBegin
  2
*D20
 70
     1
 10
0.0
 20
0.0
 30
0.0
  3
*D20
  1

  0
LINE
  5
A94
330
9D0
100
AcDbEntity
  8
DIM
 62
     0
100
AcDbLine
 10
1036.767112103517
 20
495.0465587988085
 30
0.0
 11
1099.622742228864
 21
495.0465587988085
 31
0.0
  0
LINE
  5
A95
330
9D0
100
AcDbEntity
  8
DIM
 62
     0
100
AcDbLine
 10
1036.767112103517
 20
431.5465587988085
 30
0.0
 11
1099.622742228864
 21
431.5465587988085
 31
0.0
  0
LINE
  5
A96
330
9D0
100
AcDbEntity
  8
DIM
 62
     0
100
AcDbLine
 10
1098.372742228864
 20
492.5465587988084
 30
0.0
 11
1098.372742228864
 21
434.0465587988084
 31
0.0
  0
SOLID
  5
A97
330
9D0
100
AcDbEntity
  8
DIM
 62
     0
100
AcDbTrace
 10
1097.956075562197
 20
492.5465587988084
 30
0.0
 11
1098.789408895531
 21
492.5465587988084
 31
0.0
 12
1098.372742228864
 22
495.0465587988085
 32
0.0
 13
1098.372742228864
 23
495.0465587988085
 33
0.0
  0
SOLID
  5
A98
330
9D0
100
AcDbEntity
  8
DIM
 62
     0
100
AcDbTrace
 10
1097.956075562197
 20
434.0465587988084
 30
0.0
 11
1098.789408895531
 21
434.0465587988084
 31
0.0
 12
1098.372742228864
 22
431.5465587988085
 32
0.0
 13
1098.372742228864
 23
431.5465587988085
 33
0.0
  0
MTEXT
  5
A99
330
9D0
100
AcDbEntity
  8
DIM
 62
     0
100
AcDbMText
 10
1096.338962652277
 20
463.2965587988087
 30
0.0
 40
2.5
 41
0.0
 71
     5
 72
     1
  1
63,5
 11
0.0000000000000001
 21
1.0
 31
0.0
1001
ACAD
1000
MTEXTBEGIN
1070
    73
1070
     1
1070
    44
1040
1.0
1070
    74
1070
     0
1000
MTEXTEND
  0
POINT
  5
A9A
330
9D0
100
AcDbEntity
  8
DEFPOINTS
 62
     0
100
AcDbPoint
 10
1036.142112103517
 20
495.0465587988085
 30
0.0
  0
POINT
  5
A9B
330
9D0
100
AcDbEntity
  8
DEFPOINTS
 62
     0
100
AcDbPoint
 10
1036.142112103517
 20
431.5465587988085
 30
0.0
  0
POINT
  5
A9C
330
9D0
100
AcDbEntity
  8
DEFPOINTS
 62
     0
100
AcDbPoint
 10
1098.372742228864
 20
431.5465587988085
 30
0.0
  0
ENDBLK
  5
9DB
330
9D0
100
AcDbEntity
  8
0
100
AcDbBlockEnd
  0
BLOCK
  5
9E7
330
9DD
100
AcDbEntity
  8
0
100
AcDbBlockBegin
  2
*D21
 70
     1
 10
0.0
 20
0.0
 30
0.0
  3
*D21
  1

  0
LINE
  5
A9D
330
9DD
100
AcDbEntity
  8
DIM
 62
     0
100
AcDbLine
 10
972.6421121035178
 20
430.9215587988086
 30
0.0
 11
972.6421121035178
 21
386.8145551676257
 31
0.0
  0
LINE
  5
A9E
330
9DD
100
AcDbEntity
  8
DIM
 62
     0
100
AcDbLine
 10
1036.142112103517
 20
430.9215587988147
 30
0.0
 11
1036.142112103517
 21
386.8145551676257
 31
0.0
  0
LINE
  5
A9F
330
9DD
100
AcDbEntity
  8
DIM
 62
     0
100
AcDbLine
 10
975.1421121035177
 20
388.0645551676257
 30
0.0
 11
1033.642112103517
 21
388.0645551676257
 31
0.0
  0
SOLID
  5
AA0
330
9DD
100
AcDbEntity
  8
DIM
 62
     0
100
AcDbTrace
 10
975.1421121035177
 20
388.4812218342923
 30
0.0
 11
975.1421121035177
 21
387.647888500959
 31
0.0
 12
972.6421121035178
 22
388.0645551676257
 32
0.0
 13
972.6421121035178
 23
388.0645551676257
 33
0.0
  0
SOLID
  5
AA1
330
9DD
100
AcDbEntity
  8
DIM
 62
     0
100
AcDbTrace
 10
1033.642112103517
 20
388.4812218342923
 30
0.0
 11
1033.642112103517
 21
387.647888500959
 31
0.0
 12
1036.142112103517
 22
388.0645551676257
 32
0.0
 13
1036.142112103517
 23
388.0645551676257
 33
0.0
  0
MTEXT
  5
AA2
330
9DD
100
AcDbEntity
  8
DIM
 62
     0
100
AcDbMText
 10
1004.392112103517
 20
390.0983347442135
 30
0.0
 40
2.5
 41
0.0
 71
     5
 72
     1
  1
63,5
1001
ACAD
1000
MTEXTBEGIN
1070
    73
1070
     1
1070
    44
1040
1.0
1070
    74
1070
     0
1000
MTEXTEND
  0
POINT
  5
AA3
330
9DD
100
AcDbEntity
  8
DEFPOINTS
 62
     0
100
AcDbPoint
 10
972.6421121035178
 20
431.5465587988086
 30
0.0
  0
POINT
  5
AA4
330
9DD
100
AcDbEntity
  8
DEFPOINTS
 62
     0
100
AcDbPoint
 10
1036.142112103517
 20
431.5465587988146
 30
0.0
  0
POINT
  5
AA5
330
9DD
100
AcDbEntity
  8
DEFPOINTS
 62
     0
100
AcDbPoint
 10
1036.142112103517
 20
388.0645551676257
 30
0.0
  0
ENDBLK
  5
9E8
330
9DD
100
AcDbEntity
  8
0
100
AcDbBlockEnd
  0
BLOCK
  5
AB3
330
AAC
100
AcDbEntity
  8
0
100
AcDbBlockBegin
  2
*D22
 70
     1
 10
0.0
 20
0.0
 30
0.0
  3
*D22
  1

  0
LINE
  5
AAD
330
AAC
100
AcDbEntity
  8
DIM
 62
     0
100
AcDbLine
 10
876.5991971749917
 20
656.9428154884376
 30
0.0
 11
877.6898402223354
 21
742.1228997440911
 31
0.0
  0
MTEXT
  5
AAE
330
AAC
100
AcDbEntity
  8
DIM
 62
     0
100
AcDbMText
 10
874.6197156175792
 20
661.682899558128
 30
0.0
 40
2.5
 41
0.0
 71
     5
 72
     1
  1
R192,6
 11
0.0128029182758786
 21
0.9999180392830309
 31
0.0
1001
ACAD
1000
MTEXTBEGIN
1070
    73
1070
     1
1070
    44
1040
1.0
1070
    74
1070
     0
1000
MTEXTEND
  0
LINE
  5
AAF
330
AAC
100
AcDbEntity
  8
DIM
 62
     0
100
AcDbLine
 10
880.1874916933568
 20
937.1914542642974
 30
0.0
 11
877.7218475180251
 21
744.6226948422986
 31
0.0
  0
SOLID
  5
AB0
330
AAC
100
AcDbEntity
  8
DIM
 62
     0
100
AcDbTrace
 10
877.2732077059675
 20
742.1282342933726
 30
0.0
 11
878.1064727387033
 21
742.1175651948094
 31
0.0
 12
877.7218475180251
 22
744.6226948422986
 32
0.0
 13
877.7218475180251
 23
744.6226948422986
 33
0.0
  0
POINT
  5
AB1
330
AAC
100
AcDbEntity
  8
DEFPOINTS
 62
     0
100
AcDbPoint
 10
877.7218475180251
 20
744.6226948422986
 30
0.0
  0
POINT
  5
AB2
330
AAC
100
AcDbEntity
  8
DEFPOINTS
 62
     0
100
AcDbPoint
 10
880.1874916933568
 20
937.1914542642974
 30
0.0
  0
ENDBLK
  5
AB4
330
AAC
100
AcDbEntity
  8
0
100
AcDbBlockEnd
  0
ENDSEC
  0
SECTION
  2
ENTITIES
  0
LINE
  5
1FC
330
1F
100
AcDbEntity
  8
0
100
AcDbLine
 10
932.1424462654896
 20
951.7474217318335
 30
0.0
 11
248.4673158134733
 21
760.2054785393677
 31
0.0
  0
LINE
  5
204
330
1F
100
AcDbEntity
  8
0
100
AcDbLine
 10
346.1421121035057
 20
429.2027868354097
 30
0.0
 11
346.1421121035057
 21
634.2027868354098
 31
0.0
  0
LINE
  5
205
330
1F
100
AcDbEntity
  8
0
100
AcDbLine
 10
116.142112103502
 20
431.5465587988093
 30
0.0
 11
116.1421121035018
 21
651.5465587988359
 31
0.0
  0
LINE
  5
256
330
1F
100
AcDbEntity
  8
0
100
AcDbLine
 10
343.6421121035057
 20
564.2474439372437
 30
0.0
 11
343.6421121035057
 21
634.3913060958819
 31
0.0
  0
LINE
  5
257
330
1F
100
AcDbEntity
  8
0
100
AcDbLine
 10
346.1421121035057
 20
564.2027868354098
 30
0.0
 11
343.6421121035057
 21
564.2027868354098
 31
0.0
  0
LINE
  5
259
330
1F
100
AcDbEntity
  8
0
100
AcDbLine
 10
932.1424462654896
 20
951.7474217318337
 30
0.0
 11
932.1424462654896
 21
751.7474217317446
 31
0.0
  0
LINE
  5
37B
330
1F
100
AcDbEntity
  8
0
100
AcDbLine
 10
803.6421121035143
 20
494.2027868354025
 30
0.0
 11
803.6421121035143
 21
564.6375694440987
 31
0.0
  0
LINE
  5
37D
330
1F
100
AcDbEntity
  8
0
100
AcDbLine
 10
806.1421121035142
 20
429.2027868354025
 30
0.0
 11
806.1421121035142
 21
564.2027868354025
 31
0.0
  0
LINE
  5
37E
330
1F
100
AcDbEntity
  8
0
100
AcDbLine
 10
576.1421121035096
 20
428.4215655689449
 30
0.0
 11
576.1421121035096
 21
603.4215655689449
 31
0.0
  0
LINE
  5
380
330
1F
100
AcDbEntity
  8
0
100
AcDbLine
 10
573.6421121035097
 20
533.4662226707788
 30
0.0
 11
573.6421121035097
 21
603.4215655689449
 31
0.0
  0
LINE
  5
381
330
1F
100
AcDbEntity
  8
0
100
AcDbLine
 10
576.1421121035096
 20
533.4215655689449
 30
0.0
 11
573.6421121035097
 21
533.4215655689449
 31
0.0
  0
LINE
  5
383
330
1F
100
AcDbEntity
  8
0
100
AcDbLine
 10
806.1421121035142
 20
494.2027868354025
 30
0.0
 11
803.6421121035143
 21
494.2027868354025
 31
0.0
  0
LINE
  5
384
330
1F
100
AcDbEntity
  8
0
100
AcDbLine
 10
251.165089661261
 20
750.5762513499099
 30
0.0
 11
248.4673158134726
 21
760.2054785393709
 31
0.0
  0
LINE
  5
38C
330
1F
100
AcDbEntity
  8
0
100
AcDbLine
 10
1036.142112103517
 20
431.5465587988085
 30
0.0
 11
1036.142112103517
 21
495.0465587988085
 31
0.0
  0
LINE
  5
3CC
330
1F
100
AcDbEntity
  8
AXIX
100
AcDbLine
 10
116.142112103502
 20
431.5465587988093
 30
0.0
 11
1036.142112103517
 21
431.5465587988085
 31
0.0
  0
DIMENSION
  5
3CE
330
1F
100
AcDbEntity
  8
DIM
100
AcDbDimension
  2
*D1
 10
1036.142112103517
 20
297.940808093173
 30
0.0
 11
576.1421121035099
 21
299.8422713559376
 31
0.0
 70
    32
  3
ISO-25
100
AcDbAlignedDimension
 13
116.142112103502
 23
431.5465587988093
 33
0.0
 14
1036.142112103517
 24
431.5465587988085
 34
0.0
100
AcDbRotatedDimension
  0
LINE
  5
3DC
330
1F
100
AcDbEntity
  8
DIM
100
AcDbLine
 10
668.1417582763957
 20
431.5465587988088
 30
0.0
 11
668.1417582763957
 21
428.5465587988088
 31
0.0
  0
POLYLINE
  5
3E1
330
1F
100
AcDbEntity
  8
EDGES
100
AcDb2dPolyline
 66
     1
 10
0.0
 20
0.0
 30
0.0
 70
     2
  0
VERTEX
  5
3E2
330
3E1
100
AcDbEntity
  8
EDGES
100
AcDbVertex
100
AcDb2dVertex
 10
116.142112103502
 20
431.5465587988093
 30
0.0
 42
0.0020379991941472
  0
VERTEX
  5
3E7
330
3E1
100
AcDbEntity
  8
EDGES
100
AcDbVertex
100
AcDb2dVertex
 10
392.1358211669685
 20
428.9215792922034
 30
0.0
 42
0.0020379991941472
 70
     1
  0
VERTEX
  5
3E3
330
3E1
100
AcDbEntity
  8
EDGES
100
AcDbVertex
100
AcDb2dVertex
 10
668.1417582763957
 20
428.5465587988088
 30
0.0
 42
0.0013586839821483
  0
VERTEX
  5
3E6
330
3E1
100
AcDbEntity
  8
EDGES
100
AcDbVertex
100
AcDb2dVertex
 10
852.1460112494242
 20
429.5465616896331
 30
0.0
 42
0.0013586839821484
 70
     1
  0
VERTEX
  5
3E4
330
3E1
100
AcDbEntity
  8
EDGES
100
AcDbVertex
100
AcDb2dVertex
 10
1036.142112103517
 20
431.5465587988085
 30
0.0
  0
SEQEND
  5
3E5
330
3E1
100
AcDbEntity
  8
EDGES
  0
DIMENSION
  5
3EA
330
1F
100
AcDbEntity
  8
DIM
100
AcDbDimension
  2
*D2
 10
68.45562031950112
 20
431.5465587988119
 30
0.0
 11
66.55415705673641
 21
541.5465587988239
 31
0.0
 70
    32
  3
ISO-25
100
AcDbAlignedDimension
 13
116.1421121035017
 23
651.546558798836
 33
0.0
 14
116.1421121035019
 24
431.5465587988119
 34
0.0
 50
90.0
100
AcDbRotatedDimension
  0
LINE
  5
422
330
1F
100
AcDbEntity
  8
EDGES
100
AcDbLine
 10
116.1421121035018
 20
651.5465587988359
 30
0.0
 11
346.1421121035057
 21
634.2027868354098
 31
0.0
  0
LINE
  5
423
330
1F
100
AcDbEntity
  8
EDGES
100
AcDbLine
 10
346.1421121035057
 20
634.2027868354098
 30
0.0
 11
576.1421121035096
 21
603.4215655689449
 31
0.0
  0
LINE
  5
426
330
1F
100
AcDbEntity
  8
EDGES
100
AcDbLine
 10
576.1421121035096
 20
603.4215655689449
 30
0.0
 11
806.1421121035142
 21
564.2027868354025
 31
0.0
  0
DIMENSION
  5
428
330
1F
100
AcDbEntity
  8
DIM
100
AcDbDimension
  2
*D3
 10
378.6023846014054
 20
429.2027868354097
 30
0.0
 11
376.7009213386407
 21
531.7027868354099
 31
0.0
 70
    32
  3
ISO-25
100
AcDbAlignedDimension
 13
346.1421121035057
 23
634.2027868354098
 33
0.0
 14
346.1421121035057
 24
429.2027868354097
 34
0.0
 50
90.0
100
AcDbRotatedDimension
  0
DIMENSION
  5
435
330
1F
100
AcDbEntity
  8
DIM
100
AcDbDimension
  2
*D4
 10
624.7000375882079
 20
428.4215655689449
 30
0.0
 11
622.8188109381456
 21
515.921565568945
 31
0.0
 70
    32
  3
ISO-25
100
AcDbAlignedDimension
 13
576.1421121035096
 23
603.4215655689449
 33
0.0
 14
576.1421121035096
 24
428.4215655689449
 34
0.0
 50
90.0
100
AcDbRotatedDimension
  0
DIMENSION
  5
44F
330
1F
100
AcDbEntity
  8
DIM
100
AcDbDimension
  2
*D5
 10
876.8024938465609
 20
429.2027868354025
 30
0.0
 11
874.9212671964984
 21
496.7027868354027
 31
0.0
 70
    32
  3
ISO-25
100
AcDbAlignedDimension
 13
806.1421121035142
 23
564.2027868354025
 33
0.0
 14
806.1421121035142
 24
429.2027868354025
 34
0.0
 50
90.0
100
AcDbRotatedDimension
  0
DIMENSION
  5
478
330
1F
100
AcDbEntity
  8
DIM
100
AcDbDimension
  2
*D6
 10
668.1417582763957
 20
324.5170636522243
 30
0.0
 11
392.1419351899488
 21
326.3920636522243
 31
0.0
 70
    32
  3
ISO-25
100
AcDbAlignedDimension
 13
116.1421121035019
 23
431.5465587988119
 33
0.0
 14
668.1417582763957
 24
428.5465587988119
 34
0.0
100
AcDbRotatedDimension
  0
DIMENSION
  5
485
330
1F
100
AcDbEntity
  8
DIM
100
AcDbDimension
  2
*D7
 10
346.1421121035057
 20
360.3372318193428
 30
0.0
 11
231.1421121035038
 21
362.2386950821074
 31
0.0
 70
    32
  3
ISO-25
100
AcDbAlignedDimension
 13
116.1421121035019
 23
431.5465587988119
 33
0.0
 14
346.1421121035057
 24
429.2027868354097
 34
0.0
100
AcDbRotatedDimension
  0
DIMENSION
  5
492
330
1F
100
AcDbEntity
  8
DIM
100
AcDbDimension
  2
*D8
 10
576.1421121035096
 20
360.3134886984814
 30
0.0
 11
461.1421121035077
 21
362.2149519612461
 31
0.0
 70
    32
  3
ISO-25
100
AcDbAlignedDimension
 13
346.1421121035057
 23
429.2027868354097
 33
0.0
 14
576.1421121035096
 24
428.4215655689449
 34
0.0
100
AcDbRotatedDimension
  0
DIMENSION
  5
49F
330
1F
100
AcDbEntity
  8
DIM
100
AcDbDimension
  2
*D9
 10
806.1421121035142
 20
360.1979258168789
 30
0.0
 11
691.1421121035119
 21
362.0993890796436
 31
0.0
 70
    32
  3
ISO-25
100
AcDbAlignedDimension
 13
576.1421121035096
 23
428.4215655689449
 33
0.0
 14
806.1421121035142
 24
429.2027868354025
 34
0.0
100
AcDbRotatedDimension
  0
DIMENSION
  5
4AC
330
1F
100
AcDbEntity
  8
DIM
100
AcDbDimension
  2
*D10
 10
1036.142112103511
 20
360.1212534044307
 30
0.0
 11
921.1421121035126
 21
362.0227166671953
 31
0.0
 70
    32
  3
ISO-25
100
AcDbAlignedDimension
 13
806.1421121035142
 23
429.2027868354025
 33
0.0
 14
1036.142112103511
 24
431.5465587988119
 34
0.0
100
AcDbRotatedDimension
  0
DIMENSION
  5
4B9
330
1F
100
AcDbEntity
  8
DIM
100
AcDbDimension
  2
*D11
 10
686.5670583481322
 20
431.5465587988088
 30
0.0
 11
684.6920583481321
 21
430.0465587988068
 31
0.0
 70
    32
  3
ISO-25
100
AcDbAlignedDimension
 13
668.1417582763958
 23
428.5465587988046
 33
0.0
 14
668.1417582763957
 24
431.5465587988088
 34
0.0
 50
90.0
100
AcDbRotatedDimension
  0
DIMENSION
  5
4D8
330
1F
100
AcDbEntity
  8
DIM
100
AcDbDimension
  2
*D12
 10
827.2314956482841
 20
494.2027868354025
 30
0.0
 11
825.3300323855194
 21
529.2027868354027
 31
0.0
 70
    32
  3
ISO-25
100
AcDbAlignedDimension
 13
806.1421121035142
 23
564.2027868354025
 33
0.0
 14
806.1421121035142
 24
494.2027868354025
 34
0.0
 50
90.0
100
AcDbRotatedDimension
  0
DIMENSION
  5
4E5
330
1F
100
AcDbEntity
  8
DIM
100
AcDbDimension
  2
*D13
 10
597.5562785371807
 20
533.4215655689449
 30
0.0
 11
595.654815274416
 21
568.4215655689451
 31
0.0
 70
    32
  3
ISO-25
100
AcDbAlignedDimension
 13
576.1421121035096
 23
603.4215655689449
 33
0.0
 14
576.1421121035096
 24
533.4215655689449
 34
0.0
 50
90.0
100
AcDbRotatedDimension
  0
DIMENSION
  5
4F2
330
1F
100
AcDbEntity
  8
DIM
100
AcDbDimension
  2
*D14
 10
364.2193799413016
 20
564.2027868354098
 30
0.0
 11
362.3179166785369
 21
599.2027868354099
 31
0.0
 70
    32
  3
ISO-25
100
AcDbAlignedDimension
 13
346.1421121035057
 23
634.2027868354098
 33
0.0
 14
346.1421121035057
 24
564.2027868354098
 34
0.0
 50
90.0
100
AcDbRotatedDimension
  0
LINE
  5
500
330
1F
100
AcDbEntity
  8
AXIX
100
AcDbLine
 10
932.1424462654896
 20
751.7474217317446
 30
0.0
 11
880.1874916933558
 21
937.1914542642979
 31
0.0
  0
DIMENSION
  5
501
330
1F
100
AcDbEntity
  8
DIM
100
AcDbDimension
  2
*D15
 10
977.5146967114192
 20
751.7474217317446
 30
0.0
 11
975.6132334486544
 21
851.7474217317893
 31
0.0
 70
    32
  3
ISO-25
100
AcDbAlignedDimension
 13
932.1424462654896
 23
951.7474217318337
 33
0.0
 14
932.1424462654896
 24
751.7474217317446
 34
0.0
 50
90.0
100
AcDbRotatedDimension
  0
DIMENSION
  5
50E
330
1F
100
AcDbEntity
  8
DIM
100
AcDbDimension
  2
*D16
 10
217.706855753769
 20
869.9995069050046
 30
0.0
 11
559.0314491934973
 21
967.6014406761936
 31
0.0
 70
    33
  3
ISO-25
100
AcDbAlignedDimension
 13
932.1424462654896
 23
951.7474217318337
 33
0.0
 14
248.4673158134726
 24
760.2054785393709
 34
0.0
  0
DIMENSION
  5
535
330
1F
100
AcDbEntity
  8
DIM
100
AcDbDimension
  2
*D17
 10
915.1954351411667
 20
1012.236784260388
 30
0.0
 11
888.7041461641352
 21
1006.792760592982
 31
0.0
 70
    33
  3
ISO-25
100
AcDbAlignedDimension
 13
880.1874916933558
 23
937.1914542642979
 33
0.0
 14
932.1424462654896
 24
951.7474217318335
 34
0.0
  0
LINE
  5
56A
330
1F
100
AcDbEntity
  8
EDGES
100
AcDbLine
 10
251.165089661261
 20
750.5762513499099
 30
0.0
 11
932.1424462654896
 21
751.7474217317446
 31
0.0
  0
DIMENSION
  5
578
330
1F
100
AcDbEntity
  8
DIM
100
AcDbDimension
  2
*D18
 10
216.3946462998274
 20
740.8347849860095
 30
0.0
 11
216.8767215508904
 21
746.1623703670198
 31
0.0
 70
    33
  3
ISO-25
100
AcDbAlignedDimension
 13
248.4673158134733
 23
760.2054785393677
 33
0.0
 14
251.165089661261
 24
750.5762513499099
 34
0.0
  0
ARC
  5
588
330
1F
100
AcDbEntity
  8
AXIX
100
AcDbCircle
 10
880.1874916933558
 20
937.1914542642979
 30
0.0
 40
192.5845437892853
100
AcDbArc
 50
237.8920854714731
 51
314.9173281935648
  0
TEXT
  5
5C9
330
1F
100
AcDbEntity
  8
0
100
AcDbText
 10
1013.871998682916
 20
145.7229250336791
 30
0.0
 40
4.0
  1
Septiembre 2006
100
AcDbText
  0
LINE
  5
5CA
330
1F
100
AcDbEntity
  8
0
100
AcDbLine
 10
916.4116035061434
 20
139.5480588301482
 30
0.0
 11
1082.084922168215
 21
139.5480588301482
 31
0.0
  0
LINE
  5
5CB
330
1F
100
AcDbEntity
  8
0
100
AcDbLine
 10
916.4116035061434
 20
157.7094314812052
 30
0.0
 11
1082.084922168215
 21
157.7094314812052
 31
0.0
  0
LINE
  5
5CC
330
1F
100
AcDbEntity
  8
0
100
AcDbLine
 10
916.4116035061434
 20
176.9604840851553
 30
0.0
 11
1082.084922168215
 21
176.9604840851553
 31
0.0
  0
LINE
  5
5CD
330
1F
100
AcDbEntity
  8
0
100
AcDbLine
 10
916.4116035061434
 20
193.6689466752136
 30
0.0
 11
1082.084922168215
 21
193.6689466752136
 31
0.0
  0
LWPOLYLINE
  5
5CE
330
1F
100
AcDbEntity
  8
0
100
AcDbPolyline
 90
        4
 70
     1
 43
0.0
 10
1082.084922168215
 20
124.3055396908554
 10
916.4116035061434
 20
124.3055396908554
 10
916.4116035061434
 20
210.377407190987
 10
1082.084922168215
 20
210.377407190987
  0
TEXT
  5
5CF
330
1F
100
AcDbEntity
  8
0
100
AcDbText
 10
920.7738936981286
 20
146.8126091351419
 30
0.0
 40
4.0
  1
Diseño: Luis Pardo
100
AcDbText
  0
IMAGE
  5
5D0
330
1F
100
AcDbEntity
  8
0
 92
      140
310
8C0000000100000084000000060000000500000044C759A638A28C409B8A728FC8196640000000000000000044C759A638A28C40D024EC428C496A40000000000000000066C2AA9CE6A38D40D024EC428C496A40000000000000000066C2AA9CE6A38D409B8A728FC8196640000000000000000044C759A638A28C409B8A72
310
8FC81966400000000000000000
100
AcDbRasterImage
 90
        0
 10
916.2776610387741
 20
176.8057324635636
 30
0.0
 11
0.1425218693246421
 21
0.0
 31
0.0
 12
0.0
 22
0.1425218693246421
 32
0.0
 13
226.0
 23
235.0
340
5C6
 70
     7
280
     0
281
    50
282
    50
283
     0
360
5D1
 71
     1
 91
        2
 14
-0.5
 24
-0.5
 14
225.4999999999999
 24
234.5
  0
TEXT
  5
5D2
330
1F
100
AcDbEntity
  8
0
100
AcDbText
 10
981.3161193358837
 20
199.1173568111026
 30
0.0
 40
5.0
  1
ALCARAVÁN  RG65
100
AcDbText
  0
TEXT
  5
5D3
330
1F
100
AcDbEntity
  8
0
100
AcDbText
 10
990.2150518903697
 20
164.1139536298915
 30
0.0
 40
8.0
  1
VELAS
100
AcDbText
  0
TEXT
  5
5D4
330
1F
100
AcDbEntity
  8
0
100
AcDbText
 10
978.750286454057
 20
183.1353502886863
 30
0.0
 40
6.0
  1
CANIBAL BOATS
100
AcDbText
  0
LINE
  5
5D5
330
1F
100
AcDbEntity
  8
0
100
AcDbLine
 10
1002.203304477778
 20
157.7094314812052
 30
0.0
 11
1002.203304477778
 21
139.5480588301482
 31
0.0
  0
INSERT
  5
9C6
330
1F
100
AcDbEntity
  8
EDGES
100
AcDbBlockReference
  2
*U19
 10
97.68869567374531
 20
1370.264119174747
 30
0.0
  0
LINE
  5
9CC
330
1F
100
AcDbEntity
  8
EDGES
100
AcDbLine
 10
1036.142112103517
 20
495.0465587988085
 30
0.0
 11
972.6421121035178
 21
431.5465587988086
 31
0.0
  0
LINE
  5
9CD
330
1F
100
AcDbEntity
  8
EDGES
100
AcDbLine
 10
1035.054823627257
 20
495.3734838849209
 30
0.0
 11
971.9350053223312
 21
432.2536655799951
 31
0.0
  0
LINE
  5
9CE
330
1F
100
AcDbEntity
  8
EDGES
100
AcDbLine
 10
1036.142112103517
 20
495.0465587988085
 30
0.0
 11
806.1421121035142
 21
564.2027868354025
 31
0.0
  0
DIMENSION
  5
9CF
330
1F
100
AcDbEntity
  8
DIM
100
AcDbDimension
  2
*D20
 10
1098.372742228864
 20
431.5465587988085
 30
0.0
 11
1096.338962652277
 21
463.2965587988087
 31
0.0
 70
    32
  3
ISO-25
100
AcDbAlignedDimension
 13
1036.142112103517
 23
495.0465587988085
 33
0.0
 14
1036.142112103517
 24
431.5465587988085
 34
0.0
 50
90.0
100
AcDbRotatedDimension
  0
DIMENSION
  5
9DC
330
1F
100
AcDbEntity
  8
DIM
100
AcDbDimension
  2
*D21
 10
1036.142112103517
 20
388.0645551676257
 30
0.0
 11
1004.392112103517
 21
390.0983347442135
 31
0.0
 70
    32
  3
ISO-25
100
AcDbAlignedDimension
 13
972.6421121035178
 23
431.5465587988086
 33
0.0
 14
1036.142112103517
 24
431.5465587988146
 34
0.0
100
AcDbRotatedDimension
  0
LINE
  5
9E9
330
1F
100
AcDbEntity
  8
DIM
 62
     7
100
AcDbLine
 10
972.6421121035178
 20
431.5465587988086
 30
0.0
 11
971.9350053223312
 21
432.2536655799951
 31
0.0
  0
DIMENSION
  5
AAB
330
1F
100
AcDbEntity
  8
DIM
100
AcDbDimension
  2
*D22
 10
880.1874916933568
 20
937.1914542642974
 30
0.0
 11
876.6595546438562
 21
661.656781525126
 31
0.0
 70
   164
  3
ISO-25
100
AcDbRadialDimension
 15
877.7218475180251
 25
744.6226948422986
 35
0.0
 40
0.0
1001
ACAD
1000
DSTYLE
1002
{
1070
   288
1070
     1
1002
}
  0
TEXT
  5
ABA
330
1F
100
AcDbEntity
  8
EDGES
100
AcDbText
 10
190.6292426896534
 20
740.1255416700428
 30
0.0
 40
10.0
  1
d
100
AcDbText
  0
TEXT
  5
ABB
330
1F
100
AcDbEntity
  8
EDGES
100
AcDbText
 10
868.1264229582103
 20
1018.699468768278
 30
0.0
 40
10.0
  1
a
100
AcDbText
  0
TEXT
  5
ABC
330
1F
100
AcDbEntity
  8
EDGES
100
AcDbText
 10
892.8664868266405
 20
819.9897367652907
 30
0.0
 40
10.0
  1
c
100
AcDbText
  0
TEXT
  5
ABD
330
1F
100
AcDbEntity
  8
EDGES
100
AcDbText
 10
912.8488458097926
 20
886.5432348396465
 30
0.0
 40
10.0
  1
F1
100
AcDbText
  0
TEXT
  5
ABE
330
1F
100
AcDbEntity
  8
EDGES
100
AcDbText
 10
689.236716201749
 20
816.1866792383793
 30
0.0
 40
10.0
  1
F2
100
AcDbText
  0
TEXT
  5
ABF
330
1F
100
AcDbEntity
  8
EDGES
100
AcDbText
 10
608.4882815571035
 20
876.033502618306
 30
0.0
 40
10.0
  1
b
100
AcDbText
  0
TEXT
  5
AC0
330
1F
100
AcDbEntity
  8
EDGES
100
AcDbText
 10
222.052232895403
 20
409.7779563620993
 30
0.0
 40
10.0
  1
X
100
AcDbText
  0
TEXT
  5
AC1
330
1F
100
AcDbEntity
  8
EDGES
100
AcDbText
 10
475.575203356805
 20
409.7779563620993
 30
0.0
 40
10.0
  1
Y
100
AcDbText
  0
TEXT
  5
AC2
330
1F
100
AcDbEntity
  8
EDGES
100
AcDbText
 10
712.19664040743
 20
406.1591577605045
 30
0.0
 40
10.0
  1
Z
100
AcDbText
  0
TEXT
  5
AC3
330
1F
100
AcDbEntity
  8
EDGES
100
AcDbText
 10
902.9424988324754
 20
408.5716916026671
 30
0.0
 40
10.0
  1
W
100
AcDbText
  0
TEXT
  5
AC4
330
1F
100
AcDbEntity
  8
EDGES
100
AcDbText
 10
90.46173757054566
 20
538.8485017862644
 30
0.0
 40
10.0
  1
B0
100
AcDbText
  0
TEXT
  5
AC5
330
1F
100
AcDbEntity
  8
EDGES
100
AcDbText
 10
316.2179047874706
 20
527.9921016581815
 30
0.0
 40
10.0
  1
B1
100
AcDbText
  0
TEXT
  5
AC6
330
1F
100
AcDbEntity
  8
EDGES
100
AcDbText
 10
532.3160594911496
 20
513.516902928502
 30
0.0
 40
10.0
  1
B2
100
AcDbText
  0
TEXT
  5
AC7
330
1F
100
AcDbEntity
  8
EDGES
100
AcDbText
 10
778.5955167300853
 20
482.1539629803869
 30
0.0
 40
10.0
  1
B3
100
AcDbText
  0
TEXT
  5
AC8
330
1F
100
AcDbEntity
  8
EDGES
100
AcDbText
 10
1051.434527568109
 20
462.853696566382
 30
0.0
 40
10.0
  1
B4
100
AcDbText
  0
TEXT
  5
AC9
330
1F
100
AcDbEntity
  8
EDGES
100
AcDbText
 10
227.0090980912318
 20
534.4165169270822
 30
0.0
 40
10.0
  1
M1
100
AcDbText
  0
TEXT
  5
ACA
330
1F
100
AcDbEntity
  8
EDGES
100
AcDbText
 10
461.1766934582355
 20
513.3375595920665
 30
0.0
 40
10.0
  1
M2
100
AcDbText
  0
TEXT
  5
ACB
330
1F
100
AcDbEntity
  8
EDGES
100
AcDbText
 10
692.1798587493067
 20
504.9059757934014
 30
0.0
 40
10.0
  1
M3
100
AcDbText
  0
TEXT
  5
ACC
330
1F
100
AcDbEntity
  8
EDGES
100
AcDbText
 10
917.9089790305333
 20
474.341483982826
 30
0.0
 40
10.0
  1
M4
100
AcDbText
  0
CIRCLE
  5
ACD
330
1F
100
AcDbEntity
  8
EDGES
100
AcDbCircle
 10
231.4578738593945
 20
538.2571439063863
 30
0.0
 40
13.94785299639079
  0
CIRCLE
  5
ACE
330
1F
100
AcDbEntity
  8
EDGES
100
AcDbCircle
 10
467.1452168950026
 20
517.3611571541309
 30
0.0
 40
13.94785299639079
  0
CIRCLE
  5
ACF
330
1F
100
AcDbEntity
  8
EDGES
100
AcDbCircle
 10
698.1066988978309
 20
508.7421973328914
 30
0.0
 40
13.94785299639079
  0
CIRCLE
  5
AD0
330
1F
100
AcDbEntity
  8
EDGES
100
AcDbCircle
 10
924.3128322609154
 20
478.0818926104707
 30
0.0
 40
13.94785299639079
  0
CIRCLE
  5
AD1
330
1F
100
AcDbEntity
  8
EDGES
100
AcDbCircle
 10
694.2798030989433
 20
820.4466833362044
 30
0.0
 40
13.94785299639079
  0
CIRCLE
  5
AD2
330
1F
100
AcDbEntity
  8
EDGES
100
AcDbCircle
 10
916.6429690730874
 20
890.9134441055908
 30
0.0
 40
13.94785299639079
  0
ENDSEC
  0
SECTION
  2
OBJECTS
  0
DICTIONARY
  5
C
330
0
100
AcDbDictionary
  3
ACAD_GROUP
350
D
  3
ACAD_IMAGE_DICT
350
5C5
  3
ACAD_IMAGE_VARS
350
5C8
  3
ACAD_LAYOUT
350
1A
  3
ACAD_MLINESTYLE
350
17
  3
ACAD_PLOTSETTINGS
350
19
  3
ACAD_PLOTSTYLENAME
350
E
  3
ACDBHEADERROUNDTRIPXREC
350
AE9
  3
ADE_QUERY_LIBRARY
350
391
1001
ADE
1000
ADE02C003
1000
[Workspace]
1000
Drawings=1
1000
QueryLibrary=1
1000
Databases=1
1000
Tables=1
1000
Queries=1
1000
Topologies=1
1000
LPNs=1
1000
ShowWSpaceOnStartup=1
1000
WSpaceDockingView=1
1000
WSpaceWindowRect=0,0,0,0
1000
[Work Session]
1000
RestoreLastActiveDwgsOnStartup=1
1000
ActivateDwgsOnAttach=1
1000
DontAddObjectsToSaveSet=0
1000
MarkObjectsForEditingWithoutPrompting=0
1000
LogFileActive=1
1000
LogFileName=acadmap.log
1000
LogMessageLevel=1
1000
[Query]
1000
QueryFileDirectory=C:\Archivos de programa\AutoCAD Map 2000i
1000
CaseSensitiveMatch=0
1000
SaveCurrQueryInSession=1
1000
MkSelSetWithQryObj=0
1000
ShowBlockAsInsPt=0
1000
CreateAssociativeHatchObjects=0
1000
ReferenceBoundaryForAreaLocation=1
1000
ShowImageAsBoundary=1
1000
DefaultJoinOperator=2
1000
ColorForAdd=red
1000
ColorForRemove=red
1000
BlockLocnForQuery=1
1000
TextLocnForQuery=1
1000
[Save Back]
1000
RedefineBlockDefinitions=1
1000
RedefineLayerDefinitions=1
1000
RedefineTextStyleDefinitions=1
1000
RemoveUnusedGroups=1
1000
EraseSavedBackObjects=1
1000
RemoveLockAfterSave=1
1000
CreateHistoryFileOfChanges=0
1000
CreateBackupFileOfSourceDwg=1
1000
[External Database]
1000
DisplayTabsInSingleView=0
1000
OpenDataViewReadOnly=0
1000
SaveDataViewFmtChanges=1
1000
KeepDataViewOnTop=0
1000
ReconnectDbOnWSOpen=1
1000
NoOfSQLConditionsInHistory=10
1000
ShowFullDBPath=1
1000
[Database Types]
1000
dbfDatabases=Prompt
1000
xlsDatabases=Prompt
1000
dbDatabases=Prompt
1000
[Coordinate Transformation]
1000
AdjustSizesAndScalesForChangesInUnits=1
1000
AdjustRotationsForMapDistortions=1
1000
AdjustSizesAndScalesForMapDistortions=1
1000
AdjustElevations=1
1000
AdjustZeroRotationObjects=1
  0
DICTIONARY
  5
B0A
330
1F
100
AcDbDictionary
280
     1
  3
ACAD_LAYOUTSELFREF
360
B0B
  0
DICTIONARY
  5
B0C
330
50
100
AcDbDictionary
280
     1
  3
ACAD_LAYOUTSELFREF
360
B0D
  0
DICTIONARY
  5
9C7
330
94E
100
AcDbDictionary
280
     1
  3
_82380376-776B-484F-B3C4-9
360
9C8
  0
IMAGEDEF_REACTOR
  5
5D1
330
5D0
100
AcDbRasterImageDefReactor
 90
        2
330
5D0
  0
DICTIONARY
  5
D
102
{ACAD_REACTORS
330
C
102
}
330
C
100
AcDbDictionary
  0
DICTIONARY
  5
5C5
102
{ACAD_REACTORS
330
C
102
}
330
C
100
AcDbDictionary
  3
COPIA__2__DE_LOGO1
350
5C6
  0
RASTERVARIABLES
  5
5C8
102
{ACAD_REACTORS
330
C
102
}
330
C
100
AcDbRasterVariables
 90
        0
 70
     1
 71
     1
 72
     1
  0
DICTIONARY
  5
1A
102
{ACAD_REACTORS
330
C
102
}
330
C
100
AcDbDictionary
  0
DICTIONARY
  5
17
102
{ACAD_REACTORS
330
C
102
}
330
C
100
AcDbDictionary
  3
STANDARD
350
18
  0
DICTIONARY
  5
19
102
{ACAD_REACTORS
330
C
102
}
330
C
100
AcDbDictionary
  0
ACDBDICTIONARYWDFLT
  5
E
102
{ACAD_REACTORS
330
C
102
}
330
C
100
AcDbDictionary
281
     1
  3
Normal
350
F
100
AcDbDictionaryWithDefault
340
F
  0
DICTIONARY
  5
AE9
102
{ACAD_REACTORS
330
C
102
}
330
C
100
AcDbDictionary
  3
CEPSNTYPE
350
AF3
  3
DIMSTYLEDATA
350
AF7
  3
FINGERPRINTGUID
350
AF4
  3
HYPERLINKBASE
350
AEC
  3
INSUNITS
350
AF2
  3
LAYOUTDICT
350
AEE
  3
LWETCUNION
350
AF1
  3
PLOTSETDICT
350
AEF
  3
PLOTSTYLNAMDICT
350
AF0
  3
PSVPSCALE
350
AF6
  3
PUCSBASE
350
AFA
  3
PUCSORGBACK
350
B00
  3
PUCSORGBOTTOM
350
AFC
  3
PUCSORGFRONT
350
AFF
  3
PUCSORGLEFT
350
AFD
  3
PUCSORGRIGHT
350
AFE
  3
PUCSORGTOP
350
AFB
  3
PUCSORTHOREF
350
AF8
  3
PUCSORTHOVIEW
350
AF9
  3
STYLESHEET
350
AED
  3
TSTACKALIGN
350
AEA
  3
TSTACKSIZE
350
AEB
  3
UCSBASE
350
B03
  3
UCSORGBACK
350
B09
  3
UCSORGBOTTOM
350
B05
  3
UCSORGFRONT
350
B08
  3
UCSORGLEFT
350
B06
  3
UCSORGRIGHT
350
B07
  3
UCSORGTOP
350
B04
  3
UCSORTHOREF
350
B01
  3
UCSORTHOVIEW
350
B02
  3
VERSIONGUID
350
AF5
  0
DICTIONARY
  5
391
102
{ACAD_REACTORS
330
C
102
}
330
C
100
AcDbDictionary
  3
_CURRQRY
350
AE7
  0
XRECORD
  5
B0B
102
{ACAD_REACTORS
330
B0A
102
}
330
B0A
100
AcDbXrecord
340
1F
  0
XRECORD
  5
B0D
102
{ACAD_REACTORS
330
B0C
102
}
330
B0C
100
AcDbXrecord
340
50
  0
XRECORD
  5
9C8
102
{ACAD_REACTORS
330
9C7
102
}
330
9C7
100
AcDbXrecord
310
D0CF11E0A1B11AE1000000000000000000000000000000003E000300FEFF0900060000000000000000000000010000000100000000000000001000001200000001000000FEFFFFFF0000000000000000FFFFFFFFFFFFFFFFFFFFFFFFFFFFFFFFFFFFFFFFFFFFFFFFFFFFFFFFFFFFFFFFFFFFFFFFFFFFFFFFFFFFFFFFFFFFFF
310
FFFFFFFFFFFFFFFFFFFFFFFFFFFFFFFFFFFFFFFFFFFFFFFFFFFFFFFFFFFFFFFFFFFFFFFFFFFFFFFFFFFFFFFFFFFFFFFFFFFFFFFFFFFFFFFFFFFFFFFFFFFFFFFFFFFFFFFFFFFFFFFFFFFFFFFFFFFFFFFFFFFFFFFFFFFFFFFFFFFFFFFFFFFFFFFFFFFFFFFFFFFFFFFFFFFFFFFFFFFFFFFFFFFFFFFFFFFFFFFFFFFFFFFFFFFFFF
310
FFFFFFFFFFFFFFFFFFFFFFFFFFFFFFFFFFFFFFFFFFFFFFFFFFFFFFFFFFFFFFFFFFFFFFFFFFFFFFFFFFFFFFFFFFFFFFFFFFFFFFFFFFFFFFFFFFFFFFFFFFFFFFFFFFFFFFFFFFFFFFFFFFFFFFFFFFFFFFFFFFFFFFFFFFFFFFFFFFFFFFFFFFFFFFFFFFFFFFFFFFFFFFFFFFFFFFFFFFFFFFFFFFFFFFFFFFFFFFFFFFFFFFFFFFFFFF
310
FFFFFFFFFFFFFFFFFFFFFFFFFFFFFFFFFFFFFFFFFFFFFFFFFFFFFFFFFFFFFFFFFFFFFFFFFFFFFFFFFFFFFFFFFFFFFFFFFFFFFFFFFFFFFFFFFFFFFFFFFFFFFFFFFFFFFFFFFFFFFFFFFFFFFFFFFFFFFFFFFFFFFFFFFFFFFFFFFFFFFFFFFFFFFFFFFFFFFFFFFFFFFFFFFFFFFFFFFFFFFFFFFFFFFFFFFFFFFFFFFFFFFFFFFFFFFF
310
FFFFFFFFFDFFFFFFFEFFFFFF030000000400000005000000060000000700000008000000090000000A0000000B0000000C0000000D0000000E0000000F0000001000000011000000FEFFFFFFFEFFFFFF14000000FEFFFFFFFFFFFFFFFFFFFFFFFFFFFFFFFFFFFFFFFFFFFFFFFFFFFFFFFFFFFFFFFFFFFFFFFFFFFFFFFFFFFF
310
FFFFFFFFFFFFFFFFFFFFFFFFFFFFFFFFFFFFFFFFFFFFFFFFFFFFFFFFFFFFFFFFFFFFFFFFFFFFFFFFFFFFFFFFFFFFFFFFFFFFFFFFFFFFFFFFFFFFFFFFFFFFFFFFFFFFFFFFFFFFFFFFFFFFFFFFFFFFFFFFFFFFFFFFFFFFFFFFFFFFFFFFFFFFFFFFFFFFFFFFFFFFFFFFFFFFFFFFFFFFFFFFFFFFFFFFFFFFFFFFFFFFFFFFFFFFFF
310
FFFFFFFFFFFFFFFFFFFFFFFFFFFFFFFFFFFFFFFFFFFFFFFFFFFFFFFFFFFFFFFFFFFFFFFFFFFFFFFFFFFFFFFFFFFFFFFFFFFFFFFFFFFFFFFFFFFFFFFFFFFFFFFFFFFFFFFFFFFFFFFFFFFFFFFFFFFFFFFFFFFFFFFFFFFFFFFFFFFFFFFFFFFFFFFFFFFFFFFFFFFFFFFFFFFFFFFFFFFFFFFFFFFFFFFFFFFFFFFFFFFFFFFFFFFFFF
310
FFFFFFFFFFFFFFFFFFFFFFFFFFFFFFFFFFFFFFFFFFFFFFFFFFFFFFFFFFFFFFFFFFFFFFFFFFFFFFFFFFFFFFFFFFFFFFFFFFFFFFFFFFFFFFFFFFFFFFFFFFFFFFFFFFFFFFFFFFFFFFFFFFFFFFFFFFFFFFFFFFFFFFFFFFFFFFFFFFFFFFFFFFFFFFFFFFFFFFFFFFFFFFFFFFFFFFFFFFFFFFFFFFFFFFFFFFFFFFFFFFFFFFFFFFFFFF
310
FFFFFFFFFFFFFFFF52006F006F007400200045006E00740072007900000000000000000000000000000000000000000000000000000000000000000000000000000000000000000016000500FFFFFFFFFFFFFFFF020000002008020000000000C0000000000000460000000000000000000000001040CD2EACDFC601130000
310
00400200000000000057006F0072006B0062006F006F006B0000000000000000000000000000000000000000000000000000000000000000000000000000000000000000000000000012000200FFFFFFFFFFFFFFFFFFFFFFFF0000000000000000000000000000000000000000000000000000000000000000000000000200
310
00004C1F0000000000000500530075006D006D0061007200790049006E0066006F0072006D006100740069006F006E000000000000000000000000000000000000000000000000000000280002010100000003000000FFFFFFFF00000000000000000000000000000000000000000000000000000000000000000000000000
310
000000C800000000000000050044006F00630075006D0065006E007400530075006D006D0061007200790049006E0066006F0072006D006100740069006F006E000000000000000000000038000200FFFFFFFFFFFFFFFFFFFFFFFF000000000000000000000000000000000000000000000000000000000000000000000000
310
0400000014010000000000000908100000060500FE1CCD07C940000006010000E1000200B004C10002000000E20000005C007000020000706320202020202020202020202020202020202020202020202020202020202020202020202020202020202020202020202020202020202020202020202020202020202020202020
310
2020202020202020202020202020202020202020202020202020202020202020202020202042000200B004610102000000C00100003D0106000100020003009C0002000E00190002000000120002000000130002000000AF0102000000BC01020000003D00120000000F005B3BFD2038000000000001005802400002000000
310
8D00020000002200020000000E0002000100B70102000000DA000200000031001A00C8000000FF7F9001000000000000050141007200690061006C0031001A00C8000000FF7F9001000000000000050141007200690061006C0031001A00C8000000FF7F9001000000000000050141007200690061006C0031001A00C80000
310
00FF7F9001000000000000050141007200690061006C0031002A00C8000100FF7FBC020000000002000D01430069007400790042006C00750065007000720069006E00740031002A00C8000000FF7F90010000000002000D01430069007400790042006C00750065007000720069006E0074001E043300050017000123002C
310
002300230030005C0020002200AC2022003B005C002D0023002C002300230030005C0020002200AC2022001E043D0006001C000123002C002300230030005C0020002200AC2022003B005B005200650064005D005C002D0023002C002300230030005C0020002200AC2022001E043F0007001D000123002C00230023003000
310
2E00300030005C0020002200AC2022003B005C002D0023002C002300230030002E00300030005C0020002200AC2022001E044900080022000123002C002300230030002E00300030005C0020002200AC2022003B005B005200650064005D005C002D0023002C002300230030002E00300030005C0020002200AC2022001E04
310
71002A003600015F002D002A00200023002C002300230030005C0020002200AC2022005F002D003B005C002D002A00200023002C002300230030005C0020002200AC2022005F002D003B005F002D002A00200022002D0022005C0020002200AC2022005F002D003B005F002D0040005F002D001E046B0029003300015F002D
310
002A00200023002C002300230030005C0020005F00AC205F002D003B005C002D002A00200023002C002300230030005C0020005F00AC205F002D003B005F002D002A00200022002D0022005C0020005F00AC205F002D003B005F002D0040005F002D001E0481002C003E00015F002D002A00200023002C002300230030002E
310
00300030005C0020002200AC2022005F002D003B005C002D002A00200023002C002300230030002E00300030005C0020002200AC2022005F002D003B005F002D002A00200022002D0022003F003F005C0020002200AC2022005F002D003B005F002D0040005F002D001E047B002B003B00015F002D002A00200023002C0023
310
00230030002E00300030005C0020005F00AC205F002D003B005C002D002A00200023002C002300230030002E00300030005C0020005F00AC205F002D003B005F002D002A00200022002D0022003F003F005C0020005F00AC205F002D003B005F002D0040005F002D00E000140000000000F5FF200000000000000000000000
310
C020E000140001000000F5FF200000F40000000000000000C020E000140001000000F5FF200000F40000000000000000C020E000140002000000F5FF200000F40000000000000000C020E000140002000000F5FF200000F40000000000000000C020E000140000000000F5FF200000F40000000000000000C020E000140000
310
000000F5FF200000F40000000000000000C020E000140000000000F5FF200000F40000000000000000C020E000140000000000F5FF200000F40000000000000000C020E000140000000000F5FF200000F40000000000000000C020E000140000000000F5FF200000F40000000000000000C020E000140000000000F5FF2000
310
00F40000000000000000C020E000140000000000F5FF200000F40000000000000000C020E000140000000000F5FF200000F40000000000000000C020E000140000000000F5FF200000F40000000000000000C020E0001400000000000100200000000000000000000000C020E000140001002B00F5FF200000F80000000000
310
000000C020E000140001002900F5FF200000F80000000000000000C020E000140001002C00F5FF200000F80000000000000000C020E000140001002A00F5FF200000F80000000000000000C020E000140001000900F5FF200000F80000000000000000C020E0001400000000000100220000100000000000000000C020E000
310
1400050000000100230000380111400040200000C020E0001400060000000100200000280101400040000000C020E0001400060000000100220000380001000040000000C020E0001400060000000100200000280001000040000000C020E0001400060000000100200000281001002040000000C020E00014000600000001
310
00200000280100400000000000C020E0001400060000000100220000380000000000000000C020E0001400060000000100200000280000000000000000C020E0001400060000000100200000281000002000000000C020E0001400050000000100210000381011002040200000C020E0001400060000000100220000381111
310
402040200000C020E0001400060000000100220000380111400040200000C020E0001400060000000100220000380011000040200000C020E0001400060000000100210000381011002040200000C020E0001400050000000100210000380011000040200000C020E0001400050000000100220000380011000040200000C0
310
20E0001400060000000100210000380000000000000000C020E0001400050000000100220000380222400040200000C020E0001400050000000100210000380022000040200000C020E0001400050000000100220000380022000040200000C020E0001400050000000100210000382022002040200000C020E00014000600
310
00000100200000280110400000200000C020E0001400060000000100220000380010000000200000C020E0001400060000000100200000280010000000200000C020E0001400060000000100200000281010002000200000C020E0001400050000000100220000381111402040200000C02093020400108003FF9302040011
310
8006FF93020400128004FF93020400138007FF93020400008000FF93020400148005FF60010200000085000D00CB0A000000000500486F6A613185000D003E1D000000000500486F6A613285000D00451E000000000500486F6A61338C00040022002200C1010800C101000060690100FC00CC00280000001D000000070000
310
4D454449444153050000464F5155450500004D41594F520500004152454153050000544F54414C03000046313D03000046323D0300004D313D0300004D323D0300004D333D0300004D343D020000613D020000623D020000633D020000643D03000042303D03000042313D03000042323D03000042333D03000042343D0200
310
005A3D020000593D020000583D020000573D0600004D41594F523D060000464F5155453D0B00005355504552464943494520040000636D5E32060000544F54414C3DFF0022000800DD0900000C000000190A000048000000450A000074000000710A0000A00000000A0000000908100000061000FE1CCD07C9400000060100
310
000B021400000000000000000015000000D1130000D51C00000D00020001000C00020064000F000200010011000200000010000800FCA9F1D24D62503F5F00020001002A00020000002B0002000000820002000100800008000000000000000000250204000000FF0081000200C10414000000150000008300020000008400
310
020000004D004608000048005000200050005300430020003100350030003000200073006500720069006500730000007300650072006900650073002C004C006F00630061006C00000001042140DC0068070FDF8007010009009A0B3408640001000100FDFF02000100000003000000000000000000000000000000000000
310
00000000000000000000000000000000000000000000000000000000000000000000000000000000000000000000000000000000000000000000000000000000000000000000000100000003000000010000000100000000000000000000000000000000000000428365870000000000000000000000000000000000000000
310
0000000000000000000000000000000000000000340800009A0B0000016400000900000000FFFFFFFF000000000000010001000000000001455843454C000000000000000000000000000000000000000000000000000000000000000800800000640000000001010000000000000000000000000000000000000000000000
310
00000000000000000000000000000000000000000000000000000000000000000000000000000000000000000000000000000000000000000000000000000000000000000000000000000000000000000000000000000000000000000000000000000000000000000000000000E0E0E000480000001C020000000000004283
310
658701CCDABA00000000000000000000000000000000000000000000000000000000000000000000000000000000000000000000000000000000000000000000000000000000000000000000000000000000000000000000000000000000000000000000000000000000000000000000000000000000000000000000000000
310
00000000000000000000000000000000000000000000000000000000000000000000000000000000000000000000000000000000000000000000000000000000000000000000000000000000000000000000000000000000000000000000000000000000000000000000000000000000000000000000000000000000000000
310
00000000000000000000000000000000000000000000000000000000000000000000000000000000000000000000000000000000000000000000000000000000000000000000000000000000000000000000000000000000000000000000000000000000000000000000000000000000000000000000000000000000000000
310
00000000000000000000000000000000000000000000000000000000000000000000000000000000000000000000000000000000000000000000000000000000000000000000000000000000000000000000000000000000000000000000000000000000000000000000000000000000000000000000000000000000000000
310
00000000000000000000000000000000000000000000000000000000000000CCDABA5C005C004C005500490053005C004800500020005000530043002000310035003000300020007300650072006900650073002C004C006F00630061006C004F006E006C0079002C0044007200760043006F006E00760065007200740000
310
00000000000000000000000000000000000000000000000000000000000000000000000000000000000000000000000000000000000000000000000000000000000000000000000000000000000000000000000000000000000000000000000000000000000000000000000000000000000000000000000000000000000000
310
00000000000000000000000000000000000000000000000000000000000000000000000000000000000000000000000000000000000000000000000000000000000000000000000000000000000000000000000000000000000000000000000000000000000000000000000000000000000000000000000000000000000000
310
00000000000000000000000000000000000000000000000000000000000000000000000000000000000000000000000000000000000000000000000000000000000000000000000000000000000000000000000000000000000000000000000000000000000000000000000000000000000000000000000000000000000000
310
00000000000000000000000000000000000000000000000000000000000000000000000000000000000000000000000000000000000000000000000000000000000000000000000000000000000000000000000000000000000000000000000000000000000000000000000000000000000000000000000000000000000000
310
00000000000000000000000000000000000000000000000000000000000000000000000000000000000000000000000000000000000000000000000000000000000000000000000000000000000000000000000000000000000000000000000000000000000000000000000000000000000000000000000000000000000000
310
00000000000000000000000000000000000000000000000000000000000000000000000000000000000000000000000000000000000000000000000000000000000000000000000000000000000000000000000000000000000000000000000000000000000000000000000000000000000000000000000000000000000000
310
00000000000000000000000000000000000000000000000000000000000000000000000000000000000000000000000000000000000000000000000000000000000000000000000000000000000000000000000000000000000000000000000000000000000000000000000000000000000000000000000000000000000000
310
000000000000000000000000000000000000000000000000000000000000000000000000000000000000000000000000000001000000CB00000024010000CA120000F71A00004B0000002A00000060130000671B00005802000058020000A1002200090064000100010001000200FDFF000000000000000000000000000000
310
0000000100550002000A007D000C000300030024060F00020002007D000C0004000400920C0F000200020000020E00000000001500000000000900000008021000000000000900FF000000000000010F00080210000100000009001D010000000000010F00080210000200000009001D010000000000010F00080210000300
310
000009001D010000000000010F00080210000400000009001D010000000000010F00080210000500000009001D010000000000010F00080210000600000009001D010000000000010F00080210000700000009001D010000000000010F00080210000800000009001D010000000000010F00080210000900000009001D0100
310
00000000010F00080210000A00000009001D010000000000010F00080210000B00000009001D010000000000010F00080210000C00000009001D010000000000010F00080210000D00000009001D010000000000010F00080210000E00000009001D010000000000010F00080210000F00000009001D010000000000010F00
310
080210001000000009001D010000000000010F00080210001100000009002C010000000000010F20080210001200000009002C010000000000010F20080210001300000009001D010000000000010F00080210001400000009001D010000000000010F00BE000E000000010015001500150015000400BE0018000100000017
310
0018001800180018001900190019001A000800BE001800020000001B001C001C001C001C001D001D001D001E00080001020600030000001B00FD000A0003000100160000000000FD000A00030002001F0001000000BE000A00030003001D001C000400FD000A00030005002F0003000000BE000C00030006001D001D001E00
310
080001020600040000001B00FD000A000400010020000B0000007E020A0004000200200001E08040BE000A00040003001D001C000400FD000A000400050021000500000006002B00040006002200EC51B81E85EB49400000050006FF15001F000000000000E03F44040002C00544060002C005FD000A000400070023001B00
310
000001020600040008001E0001020600050000001B00FD000A000500010020000C0000007E020A0005000200200001A0B940BE000A00050003001D001C000400FD000A00050005002100060000000600320005000600220014AE47E17AB484400000070006FF1C001F000000000000E03F44060002C044070002C003150544
310
050002C005FD000A000500070023001B00000001020600050008001E0001020600060000001B00FD000A000600010020000D0000007E020A0006000200200001009E40BE001200060003001D001C001C001C001D001E00080001020600070000001B00FD000A000700010020000E0000007E020A000700020020000000F03F
310
01020600070003001D00FD000A0007000400160004000000FD000A00070005002400190000000600210007000600250033333333335386400000120006FF0B0044040006C044050006C003FD000A00070007001F001B00000001020600070008001E00BE001800080000001B001C0026001D001C001C001D001D001E000800
310
01020600090000001B00FD000A0009000100160000000000FD000A00090002001F0002000000BE000A00090003001D001C000400FD000A00090005002F0003000000BE000C00090006001D001D001E000800010206000A0000001B00FD000A000A00010020000F0000007E020A000A000200200000003640BE000A000A0003
310
001D001C000400FD000A000A000500210007000000060032000A000600220000000000008C7E4000000B0006FE1C001F000000000000E03F440A0002C0440B0002C0031505440F0002C005FD000A000A00070023001B000000010206000A0008001E00010206000B0000001B00FD000A000B0001002000100000007E020A00
310
0B000200200000803440BE000A000B0003001D001C000400FD000A000B000500210008000000060032000B00060022000000000000507B4000000C0006FF1C001F000000000000E03F440B0002C0440C0002C003150544100002C005FD000A000B00070023001B000000010206000B0008001E00010206000C0000001B00FD
310
000A000C0001002000110000007E020A000C000200200000803140BE000A000C0003001D001C000400FD000A000C000500210009000000060032000C0006002200000000000048764000000D0006FF1C001F000000000000E03F440C0002C0440D0002C003150544100002C005FD000A000C00070023001B00000001020600
310
0C0008001E00010206000D0000001B00FD000A000D0001002000120000007E020A000D000200200000002B40BE000A000D0003001D001C000400FD000A000D00050021000A000000060032000D0006002200CDCCCCCCCC886C400000100006FF1C001F000000000000E03F440D0002C0440E0002C003150544120002C005FD
310
000A000D00070023001B000000010206000D0008001E00010206000E0000001B00FD000A000E0001002000130000007E020A000E000200200001D88340BE0012000E0003001D001C001C001D001D001E000800010206000F0000001B00FD000A000F0001002000140000007E020A000F000200200000003740BE0012000F00
310
03001D001C001C001D001D001E00080001020600100000001B00FD000A00100001002000150000007E020A001000020020000000374001020600100003001D00FD000A0010000400160004000000FD000A0010000500240018000000060023001000060025009A999999199A97400000040006FF0D00250A000F0006C006C0
310
19100000FD000A00100007001F001B00000001020600100008001E0001020600110000001B00FD000A00110001002000160000007E020A0011000200200000003740BE001200110003001D001C001C001C001D001E00080001020600120000001B00FD000A00120001002000170000007E020A001200020020000000374001
310
020600120003001D00FD000A001200040027001A000000FD000A001200050028001C000000060021001200060029009A999999D961A140000008001EFD0B0044070006C044100006C003FD000A00120007002A001B00000001020600120008001E00BE001800130000001B001C001C001C001C001D001D001D001E000800BE
310
001800140000002B002C002C002C002C002D002D002D002E000800D7002E00CC080000900112001C001C005200890090003C0089001C00520090009000900090003C003C008B003C0089001C003E021200B606000000004000000000000000000000001D000F00031B000B00000001001B001B000B0BEF0006000000370000
310
000A0000000908100000061000FE1CCD07C9400000060100000B021000000000000000000000000000F61D00000D00020001000C00020064000F000200010011000200000010000800FCA9F1D24D62503F5F00020001002A00020000002B0002000000820002000100800008000000000000000000250204000000FF008100
310
0200C1041400000015000000830002000000840002000000A10022000000FF000100010001000401000B0B0B000000000000000000000000000000001000550002000A0000020E0000000000000000000000000000003E021200B600000000004000000000000000000000001D000F00030000000000000100000000000000
310
EF0006000000370000000A0000000908100000061000FE1CCD07C9400000060100000B021000000000000000000000000000FD1E00000D00020001000C00020064000F000200010011000200000010000800FCA9F1D24D62503F5F00020001002A00020000002B000200000082000200010080000800000000000000000025
310
0204000000FF0081000200C1041400000015000000830002000000840002000000A10022000000FF00010001000100040000000000000000000000000000000000000000001000550002000A0000020E0000000000000000000000000000003E021200B600000000004000000000000000000000001D000F00030000000000
310
000100000000000000EF0006000000370000000A0000000000000000000000000000000000000000000000000000000000000000000000000000000000000000000000000000000000000000000000000000000000000000000000000000000000000000000000000000000000000000000000000000000000000000000000
310
00000000000000000000000000000000000000000000000000000000000000000000000000000000000000000000000000000000000000000000000000000000000000000000000000000000010000000200000003000000FEFFFFFF05000000060000000700000008000000FEFFFFFFFFFFFFFFFFFFFFFFFFFFFFFFFFFFFF
310
FFFFFFFFFFFFFFFFFFFFFFFFFFFFFFFFFFFFFFFFFFFFFFFFFFFFFFFFFFFFFFFFFFFFFFFFFFFFFFFFFFFFFFFFFFFFFFFFFFFFFFFFFFFFFFFFFFFFFFFFFFFFFFFFFFFFFFFFFFFFFFFFFFFFFFFFFFFFFFFFFFFFFFFFFFFFFFFFFFFFFFFFFFFFFFFFFFFFFFFFFFFFFFFFFFFFFFFFFFFFFFFFFFFFFFFFFFFFFFFFFFFFFFFFFFFFFF
310
FFFFFFFFFFFFFFFFFFFFFFFFFFFFFFFFFFFFFFFFFFFFFFFFFFFFFFFFFFFFFFFFFFFFFFFFFFFFFFFFFFFFFFFFFFFFFFFFFFFFFFFFFFFFFFFFFFFFFFFFFFFFFFFFFFFFFFFFFFFFFFFFFFFFFFFFFFFFFFFFFFFFFFFFFFFFFFFFFFFFFFFFFFFFFFFFFFFFFFFFFFFFFFFFFFFFFFFFFFFFFFFFFFFFFFFFFFFFFFFFFFFFFFFFFFFFFF
310
FFFFFFFFFFFFFFFFFFFFFFFFFFFFFFFFFFFFFFFFFFFFFFFFFFFFFFFFFFFFFFFFFFFFFFFFFFFFFFFFFFFFFFFFFFFFFFFFFFFFFFFFFFFFFFFFFFFFFFFFFFFFFFFFFFFFFFFFFFFFFFFFFFFFFFFFFFFFFFFFFFFFFFFFFFFFFFFFFFFFFFFFFFFFFFFFFFFFFFFFFFFFFFFFFFFFFFFFFFFFFFFFFFFFFFFFFFFFFFFFFFFFFFFFFFFFFF
310
FFFFFFFFFFFFFFFFFFFFFFFFFFFFFFFFFFFFFFFFFFFFFFFFFFFFFFFFFFFFFFFFFFFFFFFFFFFFFFFFFFFFFFFFFFFFFFFFFFFFFFFFFFFFFFFFFFFFFFFFFFFFFFFFFFFFFFFFFFFFFFFFFFFFFFFFFFFFFFFFFEFF0000050102000000000000000000000000000000000001000000E0859FF2F94F6810AB9108002B27B3D9300000
310
00980000000700000001000000400000000400000048000000080000005400000012000000600000000C000000780000000D00000084000000130000009000000002000000E40400001E00000003000000706300001E00000003000000706300001E000000100000004D6963726F736F667420457863656C00400000008066
310
D796A3DFC6014000000080B7402EACDFC60103000000000000000000000000000000000000000000000000000000000000000000000000000000000000000000000000000000000000000000000000000000FEFF000005010200000000000000000000000000000000000100000002D5CDD59C2E1B10939708002B2CF9AE30
310
000000E40000000900000001000000500000000F00000058000000170000006C0000000B00000074000000100000007C0000001300000084000000160000008C0000000D000000940000000C000000BA00000002000000E40400001E0000000B0000004C7569735F506172646F000003000000ED0E09000B00000000000000
310
0B000000000000000B000000000000000B000000000000001E1000000300000006000000486F6A61310006000000486F6A61320006000000486F6A6133000C100000020000001E00000011000000486F6A61732064652063E16C63756C6F000300000003000000000000000000000000000000000000000000000000000000
310
00000000000000000000000000000000000000000000000000000000000000000000000000000000000000000000000000000000000000000000000000000000000000000000000000000000000000000000000000000000000000000000000000000000000000000000000000000000000000000000000000000000000000
310
00000000000000000000000000000000000000000000000000000000000000000000000000000000000000000000000000000000000000000000000000000000000000000000000000000000000000000000000000000000000000000000000000000000000000000000000000000000000000000000000000000000000000
310
00000000000000000000000000000000000000000000000000000000000000000000000000000000000000000000000000000000000000000000000000000000000000000000000000000000000000000000000000000000000000000000000000000000000000000000000000000000000000000000000000000000000000
310
00000000000000000000000000000000000000000000000000000000000000000000000000000000000000000000000000000000000000000000000000000000000000000000000000000000000000000000000000000000000000000000000000000000000000000000000000000000000000000000000000000000000000
  0
IMAGEDEF
  5
5C6
102
{ACAD_REACTORS
330
5C5
330
5D1
102
}
330
5C5
100
AcDbRasterImageDef
 90
        0
  1
C:\Documents and Settings\Luis_Pardo\Mis documentos\Mis imágenes\Copia (2) de Logo1.JPG
 10
226.0
 20
235.0
 11
0.0044247787610619
 21
0.0044247787610619
280
     1
281
     0
  0
MLINESTYLE
  5
18
102
{ACAD_REACTORS
330
17
102
}
330
17
100
AcDbMlineStyle
  2
STANDARD
 70
     0
  3

 62
   256
 51
90.0
 52
90.0
 71
     2
 49
0.5
 62
   256
  6
BYLAYER
 49
-0.5
 62
   256
  6
BYLAYER
  0
ACDBPLACEHOLDER
  5
F
102
{ACAD_REACTORS
330
E
102
}
330
E
100
AcDbPlaceHolder
280
     0
  0
XRECORD
  5
AF3
102
{ACAD_REACTORS
330
AE9
102
}
330
AE9
100
AcDbXrecord
 90
        0
  0
XRECORD
  5
AF7
102
{ACAD_REACTORS
330
AE9
102
}
330
AE9
100
AcDbXrecord
1000
DSTYLE
1002
{
1070
   278
 70
    44
1002
}
  0
XRECORD
  5
AF4
102
{ACAD_REACTORS
330
AE9
102
}
330
AE9
100
AcDbXrecord
  1
{FDEAD578-A652-11D2-9A35-0060089B3A3F}
  0
XRECORD
  5
AEC
102
{ACAD_REACTORS
330
AE9
102
}
330
AE9
100
AcDbXrecord
  1

  0
XRECORD
  5
AF2
102
{ACAD_REACTORS
330
AE9
102
}
330
AE9
100
AcDbXrecord
 90
        4
  0
XRECORD
  5
AEE
102
{ACAD_REACTORS
330
AE9
102
}
330
AE9
100
AcDbXrecord
340
1A
  0
XRECORD
  5
AF1
102
{ACAD_REACTORS
330
AE9
102
}
330
AE9
100
AcDbXrecord
 90
    10781
  0
XRECORD
  5
AEF
102
{ACAD_REACTORS
330
AE9
102
}
330
AE9
100
AcDbXrecord
340
19
  0
XRECORD
  5
AF0
102
{ACAD_REACTORS
330
AE9
102
}
330
AE9
100
AcDbXrecord
340
E
  0
XRECORD
  5
AF6
102
{ACAD_REACTORS
330
AE9
102
}
330
AE9
100
AcDbXrecord
 40
0.0
  0
XRECORD
  5
AFA
102
{ACAD_REACTORS
330
AE9
102
}
330
AE9
100
AcDbXrecord
340
0
  0
XRECORD
  5
B00
102
{ACAD_REACTORS
330
AE9
102
}
330
AE9
100
AcDbXrecord
 10
0.0
 20
0.0
 30
0.0
  0
XRECORD
  5
AFC
102
{ACAD_REACTORS
330
AE9
102
}
330
AE9
100
AcDbXrecord
 10
0.0
 20
0.0
 30
0.0
  0
XRECORD
  5
AFF
102
{ACAD_REACTORS
330
AE9
102
}
330
AE9
100
AcDbXrecord
 10
0.0
 20
0.0
 30
0.0
  0
XRECORD
  5
AFD
102
{ACAD_REACTORS
330
AE9
102
}
330
AE9
100
AcDbXrecord
 10
0.0
 20
0.0
 30
0.0
  0
XRECORD
  5
AFE
102
{ACAD_REACTORS
330
AE9
102
}
330
AE9
100
AcDbXrecord
 10
0.0
 20
0.0
 30
0.0
  0
XRECORD
  5
AFB
102
{ACAD_REACTORS
330
AE9
102
}
330
AE9
100
AcDbXrecord
 10
0.0
 20
0.0
 30
0.0
  0
XRECORD
  5
AF8
102
{ACAD_REACTORS
330
AE9
102
}
330
AE9
100
AcDbXrecord
340
0
  0
XRECORD
  5
AF9
102
{ACAD_REACTORS
330
AE9
102
}
330
AE9
100
AcDbXrecord
 70
     0
  0
XRECORD
  5
AED
102
{ACAD_REACTORS
330
AE9
102
}
330
AE9
100
AcDbXrecord
  1

  0
XRECORD
  5
AEA
102
{ACAD_REACTORS
330
AE9
102
}
330
AE9
100
AcDbXrecord
 90
        1
  0
XRECORD
  5
AEB
102
{ACAD_REACTORS
330
AE9
102
}
330
AE9
100
AcDbXrecord
 90
       70
  0
XRECORD
  5
B03
102
{ACAD_REACTORS
330
AE9
102
}
330
AE9
100
AcDbXrecord
340
0
  0
XRECORD
  5
B09
102
{ACAD_REACTORS
330
AE9
102
}
330
AE9
100
AcDbXrecord
 10
0.0
 20
0.0
 30
0.0
  0
XRECORD
  5
B05
102
{ACAD_REACTORS
330
AE9
102
}
330
AE9
100
AcDbXrecord
 10
0.0
 20
0.0
 30
0.0
  0
XRECORD
  5
B08
102
{ACAD_REACTORS
330
AE9
102
}
330
AE9
100
AcDbXrecord
 10
0.0
 20
0.0
 30
0.0
  0
XRECORD
  5
B06
102
{ACAD_REACTORS
330
AE9
102
}
330
AE9
100
AcDbXrecord
 10
0.0
 20
0.0
 30
0.0
  0
XRECORD
  5
B07
102
{ACAD_REACTORS
330
AE9
102
}
330
AE9
100
AcDbXrecord
 10
0.0
 20
0.0
 30
0.0
  0
XRECORD
  5
B04
102
{ACAD_REACTORS
330
AE9
102
}
330
AE9
100
AcDbXrecord
 10
0.0
 20
0.0
 30
0.0
  0
XRECORD
  5
B01
102
{ACAD_REACTORS
330
AE9
102
}
330
AE9
100
AcDbXrecord
340
0
  0
XRECORD
  5
B02
102
{ACAD_REACTORS
330
AE9
102
}
330
AE9
100
AcDbXrecord
 70
     0
  0
XRECORD
  5
AF5
102
{ACAD_REACTORS
330
AE9
102
}
330
AE9
100
AcDbXrecord
  1
{2D2B8573-4BF5-43FD-86C1-BA86E7EA7BC1}
  0
XRECORD
  5
AE7
102
{ACAD_REACTORS
330
391
102
}
330
391
100
AcDbXrecord
1000
ADE02C001
1070
     1
1070
     0
1002
{
1002
}
1002
{
1002
}
1002
{
1002
}
1000

  0
ENDSEC
  0
EOF
